Just Believe
小寺可南子

EXTREME

Level: 9
BPM: 194
Notes: 654

1
口口口口 |----|
口口口口 |----|
口口口口 |----|
口口口口 |----|
2
口口①口 |----|
口②口口 |----|
口口③口 |--①-|
口口口口 |②-③-|
3
口口口口 |①---|
口口②口 |----|
口③口口 |--②-|
口①④口 |③-④-|
4
③口口口 |----|
口口口口 |----|
①口口口 |--①-|
②口口口 |②-③-|
5
口⑥⑥③ |--①-|
口口口口 |②-③-|
口④口① |--④-|
口口⑤② |⑤-⑥-|
6
③口口③ |--①-|
口④口口 |②-③-|
口口①口 |----|
口②口口 |--④-|
7
④口①④ |①---|
口口口口 |----|
口口②口 |②-③-|
口③口口 |--④-|
8
口⑤口口 |--①-|
⑤口口② |②---|
②①③口 |③---|
口④口口 |④-⑤-|
9
①口口② |--①-|
口⑤口④ |②---|
口口口③ |③-④-|
②口口① |-⑤--|
10
⑤口口口 |①--②|
④口口口 |--③-|
口口③口 |--④-|
口②口① |⑤---|
11
口③②① |①-②-|
⑥口⑤口 |③---|
口口④口 |④-⑤-|
口口口口 |-⑥--|
12
口口口⑦ |①--②|
口④口⑥ |--③-|
⑦③⑤⑤ |④-⑤-|
②⑥①④ |⑥-⑦-|
13
①②③口 |①-②-|
口⑤口⑥ |③---|
口④口口 |④-⑤-|
口口口口 |-⑥--|
14
⑤口口口 |①--②|
④口口口 |--③-|
口口③口 |--④-|
口①口② |⑤---|
15
口③②① |①-②-|
⑥口⑤口 |③---|
口口④口 |④-⑤-|
口口口口 |-⑥--|
16
口口⑥口 |①--②|
口⑤口口 |--③-|
④③口口 |④--⑤|
②口①口 |--⑥-|
17
①④口④ |--①-|
口口口口 |--②-|
口口②口 |③---|
口③口口 |④---|
18
③口③④ |①-②-|
⑤口口口 |--③-|
口①口⑥ |--④-|
口口②口 |⑤-⑥-|
19
④口口口 |①---|
口口⑤口 |②-③-|
口口②口 |--④-|
①③口口 |--⑤-|
20
⑤⑦③① |①-②-|
⑦⑤口口 |③-④-|
口①口口 |⑤-⑥-|
⑧⑥④② |⑦-⑧-|
21
口⑤口④ |--①-|
口口①口 |②-③-|
⑤②口口 |④---|
口口③口 |⑤---|
22
③口口③ |①-②-|
口⑥口④ |--③-|
口口①口 |--④-|
口②⑤口 |⑤-⑥-|
23
口④口口 |①---|
⑤口②口 |②-③-|
⑤③口口 |--④-|
①口口口 |--⑤-|
24
⑤⑦③① |①-②-|
⑦⑤口口 |③-④-|
口口口口 |⑤-⑥-|
⑧⑥④② |⑦-⑧-|
25
口⑤口④ |--①-|
口口①口 |②-③-|
⑤②口口 |④---|
口口③口 |⑤---|
26
③④口③ |①-②-|
口口口⑤ |--③-|
⑥口①口 |--④-|
口②口口 |⑤-⑥-|
27
口④口口 |①---|
④口⑤口 |②-③-|
口口②口 |--④-|
口③①口 |--⑤-|
28
⑤⑦③① |①-②-|
⑦⑤口口 |③-④-|
口①口口 |⑤-⑥-|
⑧⑥④② |⑦-⑧-|
29
口⑤口⑤ |--①-|
口③④口 |②-③-|
口口②口 |④---|
口口④① |⑤---|
30
③口③口 |①-②-|
①口⑤② |--③-|
①口口② |--④-|
口⑥口④ |⑤-⑥-|
31
④口口口 |①---|
①口口口 |②-③-|
口②口⑤ |--④-|
③口口⑤ |--⑤-|
32
口①①③ |①---|
⑦④口⑥ |②-③④|
⑨口⑤⑧ |⑤-⑥⑦|
⑪②②⑩ |⑧⑨⑩⑪|
33
口①①④ |①---|
口口②口 |②---|
口口口口 |③---|
口③口口 |④---|
34
①②口⑤ |①---|
②口口口 |②-③-|
口口口③ |--④-|
④口③口 |⑤---|
35
④口①口 |①---|
口②口口 |②---|
口口口口 |③---|
口口③口 |④---|
36
⑤⑤②① |①---|
口口口② |②-③-|
③口口口 |--④-|
口③口④ |⑤---|
37
④口口③ |①---|
口②①口 |②---|
口③④口 |③---|
口③④口 |④---|
38
口①口口 |①---|
口口口② |②---|
③口口口 |③---|
口口④口 |④---|
39
④④①⑤ |①---|
口口①⑤ |②-③-|
口③口② |--④-|
口③口② |--⑤-|
40
⑦口口口 |①-②③|
⑤⑤口口 |④-⑤-|
①⑥口口 |--⑥-|
①④③② |⑦---|
41
口①⑧⑦ |①-②-|
⑤口⑥⑤ |③-④-|
口口④③ |⑤-⑥-|
⑦③②① |⑦-⑧-|
42
①①⑧⑦ |①-②-|
口口⑥⑤ |③-④-|
③④④③ |⑤-⑥-|
口口②① |⑦-⑧-|
43
口①⑧⑦ |①-②-|
⑤口⑥⑤ |③-④-|
口口④③ |⑤-⑥-|
⑦③②① |⑦-⑧-|
44
①①⑧⑦ |①-②-|
⑦口⑥⑤ |③-④-|
③④④③ |⑤-⑥-|
⑦口②① |⑦-⑧-|
45
①口口口 |①---|
口②口口 |②-③-|
口口口口
口口③①

⑤④口口
④口口口
⑤口口口 |--④-|
口口口口 |--⑤-|
46
口③③口 |--①-|
口口①④ |②---|
口口口④ |③---|
口口口② |④---|
47
⑤⑦⑦⑤ |①-②③|
①口②口 |④-⑤-|
①③口口 |--⑥-|
口⑥⑥④ |--⑦-|
48
⑩口口⑨ |①-②-|
⑧①口⑦ |③④⑤⑥|
⑥口②⑤ |⑦⑧⑨⑩|
④⑪⑪③ |⑪---|
49
⑤③①口 |①-②-|
⑥①③口 |③-④-|
⑦④②口 |--⑤-|
④口口② |⑥-⑦-|
50
口⑦⑦④ |①---|
⑥口②② |②--③|
口⑤口③ |④-⑤-|
口①口① |⑥-⑦-|
51
⑥口⑥③ |--①-|
口④口① |②---|
④口⑤口 |③-④-|
口⑤②口 |⑤-⑥-|
52
⑥③⑥③ |--①-|
④口①⑤ |②-③-|
口②④① |--④-|
④⑤②⑤ |⑤-⑥-|
53
⑥口⑥② |--①-|
口口③⑥ |②---|
口口④① |③④⑤-|
口口⑤口 |⑥---|
54
口口⑤口 |①---|
口①⑤④ |②-③-|
口口口④ |--④-|
③②口口 |--⑤-|
55
③口口② |--①-|
⑤②口口 |②---|
⑤①③④ |③-④-|
②口口口 |⑤---|
56
⑥①①⑥ |①---|
口口③口 |②-③-|
口④口口 |--④-|
口口⑤② |⑤-⑥-|
57
口④③口 |--①②|
②⑥⑤① |③④⑤⑥|
⑧⑫⑪⑦ |⑦⑧⑨⑩|
⑩⑭⑬⑨ |⑪⑫⑬⑭|
58
①口口口 |①---|
口口②② |②--③|
口口口③
口口口口

⑦口⑦④
口⑥口口
⑤口口口 |④-⑤-|
口口口口 |⑥-⑦-|
59
⑥口⑥③ |--①-|
口④口① |②---|
④口⑤口 |③-④-|
口⑤②口 |⑤-⑥-|
60
⑥③⑥③ |--①-|
口④①⑤ |②-③-|
⑤②④① |--④-|
口口②口 |⑤-⑥-|
61
⑧③⑦③ |--①-|
口口④⑦ |②-③-|
口②⑤② |④⑤⑥-|
口①⑥① |⑦-⑧-|
62
口④④② |①---|
口①口口 |②---|
③⑤⑤口 |③-④-|
口③口口 |--⑤-|
63
口⑤⑤② |--①-|
口②口口 |②---|
③口口① |③---|
④口③④ |④-⑤-|
64
口口口② |--①-|
①①③口 |②---|
口④口② |③--④|
口口口⑤ |--⑤-|
65
⑤口口口 |①--②|
口①口口 |--③-|
口口②④ |--④-|
③⑥⑥口 |⑤-⑥-|
66
④③口① |①---|
口口口① |②---|
③④口口 |③-④-|
②⑤⑤② |--⑤-|
67
⑤口②① |--①-|
②⑤①② |②---|
口③口口 |③---|
④口口⑤ |④-⑤-|
68
口②②③ |--①-|
口口④① |②---|
口口口① |----|
口口口口 |--③④|
69
②②⑥口 |①---|
③口口⑥ |②---|
口①口② |③-④-|
④口⑤② |⑤-⑥-|
70
⑥口口③ |--①-|
口⑥③口 |②-③-|
口口口口 |--④-|
⑤①④② |⑤-⑥-|
71
口③口口 |--①-|
③口口④ |②-③-|
口⑤⑤口 |--④-|
④②口① |⑤---|
72
②⑧⑦① |①②③④|
⑩④③⑨ |⑤⑥⑦⑧|
⑥⑯⑮⑤ |⑨⑩⑪⑫|
⑫⑭⑬⑪ |⑬⑭⑮⑯|
73
②⑥⑤① |①②③④|
⑧⑩⑨⑦ |⑤⑥⑦⑧|
④⑭⑬③ |⑨⑩⑪⑫|
⑫⑯⑮⑪ |⑬⑭⑮⑯|
74
①③②① |①-②-|
口⑥口⑤ |③---|
口口口④ |④-⑤-|
口口口口 |-⑥--|
75
⑤口口口 |①--②|
④口口口 |--③-|
口口③口 |--④-|
口②口① |⑤---|
76
口③②① |①-②-|
⑥口⑤口 |③---|
口口④口 |④-⑤-|
口口口口 |-⑥--|
77
口口口⑦ |①--②|
口④口⑥ |--③-|
⑦③⑤⑤ |④-⑤-|
②⑥①④ |⑥-⑦-|
78
①②③口 |①-②-|
口⑤口⑥ |③---|
口④口口 |④-⑤-|
口口口口 |-⑥--|
79
⑤口口口 |①--②|
④口口口 |--③-|
口口③口 |--④-|
口①口② |⑤---|
80
口③②① |①-②-|
口⑥口⑤ |③---|
口口口④ |④-⑤-|
口口口口 |-⑥--|
81
口口口口 |①--②|
口口口口 |--③-|
口口③口
口②口①

⑤口口④
⑦口口⑥
⑨口口⑧ |④⑤⑥⑦|
⑪口口⑩ |⑧⑨⑩⑪|

不確定度: 0

最終更新:2016年07月27日 22:20