Crack Traxxxx
Lite Show Magic (t+pazolite vs C-Show)

ADVANCED

Level: 9
BPM: 220
Notes: 771

1
口口口口 |----|
口口口口 |----|
口口口口 |----|
口口口口 |----|
2
口口口口 |----|
口口口口 |----|
口口口口 |----|
口口口口 |----|
3
口口口口 |----|
口口口口 |----|
口口口口 |----|
口口口口 |----|
4
⑦口口⑧ |①-②-|
口③④口 |③-④-|
口⑤⑥口 |⑤-⑥-|
①口口② |⑦-⑧-|
5
口③④口 |①-②-|
⑦口口⑧ |③-④-|
①口口② |⑤-⑥-|
口⑤⑥口 |⑦-⑧-|
6
③口口④ |①-②-|
口⑦⑧口 |③-④-|
口①②口 |⑤-⑥-|
⑤口口⑥ |⑦-⑧-|
7
口③④口 |①-②-|
⑦口口⑧ |③-④-|
①口口② |⑤-⑥-|
口⑤⑥口 |⑦-⑧-|
8
①口口① |①---|
口①①口 |--②-|
口②②口 |----|
②口口② |----|
9
口口口口 |----|
口口口口 |----|
口口口口 |----|
口口口口 |----|
10
口口口口 |----|
口口口口 |----|
口口口口 |----|
口口口口 |----|
11
①①①① |----|
口口口口 |----|
口口口口 |----|
口口口口 |①---|
12
口口口口 |①---|
①口口② |--②-|
①口口② |----|
②③③① |③---|
13
口口①③ |①---|
口③口口 |②---|
①②口④ |③---|
④口口② |④---|
14
①①口口 |①---|
口口②② |--②-|
口口①口 |----|
③②口③ |③---|
15
③口①③ |①---|
口口口④ |②---|
①②口口 |③---|
口④②口 |④---|
16
口口口口 |①---|
①口①口 |②---|
②口口口 |③---|
③口口口 |----|
17
口口口口 |①---|
口①口① |②---|
口口口② |③---|
口口口③ |----|
18
口②③口 |①-②-|
①口口④ |③-④-|
⑤口口⑧ |⑤-⑥-|
口⑥⑦口 |⑦-⑧-|
19
①④④② |①---|
口①②口 |②---|
口口口口 |③---|
③口口③ |④---|
20
口口口口 |①-②-|
②④⑥⑧ |③-④-|
①③⑤⑦ |⑤-⑥-|
口口口口 |⑦-⑧-|
21
②④⑥口 |①-②-|
口口口口 |③-④-|
口口口口 |⑤-⑥-|
①③⑤⑦ |⑦---|
22
口口口口 |①-②-|
⑦⑤③① |③-④-|
⑧⑥④② |⑤-⑥-|
口口口口 |⑦-⑧-|
23
⑦⑤③① |①-②-|
口口口口 |③-④-|
口口口口 |⑤-⑥-|
口⑥④② |⑦---|
24
口口口口 |①-②-|
②④⑥⑧ |③-④-|
①③⑤⑦ |⑤-⑥-|
口口口口 |⑦-⑧-|
25
口⑥④② |①-②-|
口口口口 |③-④-|
口口口口 |⑤-⑥-|
⑦⑤③① |⑦---|
26
口口口口 |①---|
②③④① |②---|
③②①④ |③---|
口口口口 |④---|
27
①③③② |①---|
口口口口 |②---|
口口口口 |③---|
②④④① |④---|
28
③口⑥⑥ |①-②-|
口⑦②② |③-④-|
①⑤④④ |⑤-⑥-|
口口⑧⑧ |⑦-⑧-|
29
⑦③⑥⑥ |①-②-|
口口②② |③-④-|
⑤口④④ |⑤-⑥-|
①口口口 |⑦---|
30
口③⑧⑧ |①-②-|
⑤口②② |③-④-|
口⑦⑥⑥ |⑤-⑥-|
口①④④ |⑦-⑧-|
31
③口口口 |①-②-|
口⑤②② |③-④-|
口口⑥⑥ |⑤-⑥-|
①⑦④④ |⑦---|
32
口③⑥⑥ |①-②-|
⑤口②② |③-④-|
①⑦口口 |⑤-⑥-|
口口④④ |⑦---|
33
口③⑥⑥ |①-②-|
口⑦②② |③-④-|
⑤口口口 |⑤-⑥-|
①口④④ |⑦---|
34
口口口口 |①---|
①④③② |②---|
④①②③ |③---|
口口口口 |④---|
35
③①③① |①---|
口口口口 |②---|
口口口口 |③---|
②④②④ |④---|
36
口口口① |----|
②口②口 |①---|
口②口② |②---|
①口口口 |----|
37
④口口⑧ |①-②-|
口③⑦口 |③-④-|
②口口⑥ |⑤-⑥-|
口①⑤口 |⑦-⑧-|
38
口①①口 |①---|
口口口⑥ |②-③-|
口③②⑤ |④---|
④口口④ |⑤-⑥-|
39
口④③口 |--①-|
口②①口 |--②-|
口口口口 |③-④-|
口⑤⑤口 |⑤---|
40
口口口① |----|
②口②口 |①---|
口②口② |②---|
①口口口 |----|
41
④口口⑧ |①-②-|
口③⑦口 |③-④-|
②口口⑥ |⑤-⑥-|
口①⑤口 |⑦-⑧-|
42
口①②口 |①-②-|
③口口④ |③-④-|
口⑤⑥口 |⑤-⑥-|
⑦口口⑧ |⑦-⑧-|
43
⑤⑥⑦口 |①-②-|
口①口④ |③-④-|
③口口口 |⑤-⑥-|
口口②口 |⑦---|
44
口口口① |----|
②口②口 |①---|
口②口② |②---|
①口口口 |----|
45
④口口⑧ |①-②-|
口③⑦口 |③-④-|
②口口⑥ |⑤-⑥-|
口①⑤口 |⑦-⑧-|
46
口①①口 |①---|
口口口⑥ |②-③-|
口③②⑤ |④---|
④口口④ |⑤-⑥-|
47
口④③口 |--①-|
口②①口 |--②-|
口口口口 |③-④-|
口⑤⑤口 |⑤---|
48
口口口① |----|
②口②口 |①---|
口②口② |②---|
①口口口 |----|
49
④口口⑧ |①-②-|
口③⑦口 |③-④-|
②口口⑥ |⑤-⑥-|
口①⑤口 |⑦-⑧-|
50
口口口口 |①---|
口口口口 |--②-|
口①①口 |--③-|
口②③④ |--④-|
51
口②③口 |①-②-|
①口口④ |③-④-|
⑤口口⑧ |⑤-⑥-|
口⑥⑦口 |⑦-⑧-|
52
口口口口 |①---|
①②③口 |②---|
口④⑤口 |③---|
口口口口 |④-⑤-|
53
①口口② |①---|
口口口口 |②---|
口口口口 |③---|
③口口④ |④---|
54
口口②口 |①---|
口口口口 |--②-|
口④口口 |--③-|
口①③口 |--④-|
55
口口口口 |①---|
口口①口 |----|
口口口口 |----|
口口口口 |----|
56
口④口口 |①---|
④②⑤口 |②-③-|
口⑥③口 |④---|
①口口① |⑤-⑥-|
57
④口①⑤ |①---|
口②口口 |②-③-|
④口③① |④---|
口口口口 |⑤---|
58
③①②口 |①---|
口口口口 |--②-|
口口口口 |--③-|
口②①④ |--④-|
59
口①⑧口 |①-②-|
口⑦②口 |③-④-|
口③⑥口 |⑤-⑥-|
口⑤④口 |⑦-⑧-|
60
①口口① |①---|
②口⑥⑥ |②-③-|
口④口① |④---|
④口③⑤ |⑤-⑥-|
61
⑤④③② |--①-|
⑦①口⑦ |②③④⑤|
口口①口 |--⑥-|
口⑥⑥口 |--⑦-|
62
口④⑤③ |--①-|
口口①口 |--②-|
口口②① |--③-|
③⑤④② |④-⑤-|
63
⑤口口⑥ |①-②-|
①②③① |③-④-|
口④口口 |⑤---|
⑥口口⑤ |⑥---|
64
口⑤②口 |①---|
⑥⑥④口 |②-③-|
口③口④ |④---|
口①①口 |⑤-⑥-|
65
①口口① |--①-|
口口⑪⑩ |--②③|
⑨⑧⑦⑥ |④⑤⑥⑦|
⑤④③② |⑧⑨⑩⑪|
66
②①⑤④ |①---|
①②口口 |②-③-|
口⑤口④ |--④-|
口口口③ |--⑤-|
67
③①口口 |①---|
口口口口 |②---|
口口口口 |③---|
④②口口 |④---|
68
⑤口①⑥ |①-②-|
口⑧口① |③-④-|
⑤②口④ |⑤-⑥-|
⑦⑦③③ |⑦-⑧-|
69
⑦③②⑧ |①-②-|
口⑩④② |③④⑤⑥|
⑩⑤①⑧ |⑦-⑧-|
口口⑥⑨ |⑨-⑩-|
70
口⑥③口 |①-②-|
⑥⑧⑦② |③-④-|
⑧④②⑦ |⑤-⑥-|
①④⑤口 |⑦-⑧-|
71
①⑥⑤① |①-②-|
⑥口口⑤ |③-④-|
口④口口 |⑤---|
②⑤⑥③ |⑥---|
72
口口口⑥ |①---|
口②③⑤ |②-③-|
口④口① |④---|
口口口口 |⑤-⑥-|
73
①口口口 |--①-|
口口口口 |②③④⑤|
⑥口口⑦ |⑥---|
②③④⑤ |--⑦-|
74
口①②口 |--①-|
口③④口 |②-③-|
口⑤⑥口 |④-⑤-|
口⑦口口 |⑥-⑦-|
75
②口口② |①---|
口口口口 |----|
口口口口 |----|
口口①口 |②---|
76
口口口口 |①---|
①②③口 |②---|
口④⑤口 |③---|
口口口口 |④-⑤-|
77
①口口② |①---|
口口口口 |②---|
口口口口 |③---|
③口口④ |④---|
78
口口②口 |①---|
口口口口 |--②-|
口④口口 |--③-|
口①③口 |--④-|
79
口口口口 |①---|
口口①口 |----|
口口口口 |----|
口口口口 |----|
80
口口口口 |①---|
①②③口 |②---|
口④⑤口 |③---|
口口口口 |④-⑤-|
81
①口口口 |①---|
口口口口 |----|
口口口口 |----|
口口口口 |----|
82
口口口口 |①-②-|
⑤口口⑥ |③-④-|
口③④口 |⑤-⑥-|
口①②口 |----|
83
口③④口 |①-②-|
口①②口 |③-④-|
口口口口 |----|
⑤口口⑤ |⑤---|
84
③口⑥⑥ |①-②-|
口⑦②② |③-④-|
①⑤④④ |⑤-⑥-|
口口⑧⑧ |⑦-⑧-|
85
⑦③⑥⑥ |①-②-|
口口②② |③-④-|
⑤口④④ |⑤-⑥-|
①口口口 |⑦---|
86
口③④口 |①---|
口①②口 |②---|
口④③口 |③---|
口②①口 |④---|
87
③口口① |①---|
口口口口 |②---|
口口口口 |③---|
④口口② |④---|
88
口③⑧⑧ |①-②-|
⑤口②② |③-④-|
口⑦⑥⑥ |⑤-⑥-|
口①④④ |⑦-⑧-|
89
③口口口 |①-②-|
口⑤②② |③-④-|
口口⑥⑥ |⑤-⑥-|
①⑦④④ |⑦---|
90
口①②口 |①---|
①口口② |②---|
口③④口 |③---|
③口口④ |④---|
91
口口口口 |①---|
口③口口 |②---|
①口④② |③---|
口①②口 |④---|
92
口③⑥⑥ |①-②-|
⑤口②② |③-④-|
①⑦⑧⑧ |⑤-⑥-|
口口④④ |⑦-⑧-|
93
口③⑥⑥ |①-②-|
口⑦②② |③-④-|
⑤口口口 |⑤-⑥-|
①口④④ |⑦---|
94
①口口口 |①---|
口口口② |②---|
③口口口 |③---|
口口口④ |④---|
95
口口口口 |①---|
③④④④ |②---|
口口口② |③---|
①口口口 |④---|
96
③口②② |①-②-|
⑤口⑧⑧ |③-④-|
口①⑥⑥ |⑤-⑥-|
口⑦④④ |⑦-⑧-|
97
③口②② |①-②-|
口⑤口口 |③-④-|
口①⑥⑥ |⑤-⑥-|
⑦口④④ |⑦---|
98
口①口② |①---|
②口①口 |②---|
④③口④ |③---|
④口③④ |④---|
99
口①①口 |①---|
口②②口 |②---|
口③③口 |③---|
口④④口 |④---|
100
口口口口 |①---|
①口口② |--②-|
①口口② |----|
②③③① |③---|
101
口口①③ |①---|
口③口口 |②---|
①②口④ |③---|
④口口② |④---|
102
①①口口 |①---|
口口②② |--②-|
口口①口 |----|
③②口③ |③---|
103
③口①③ |①---|
口口口④ |②---|
①②口口 |③---|
口④②口 |④---|
104
口口口口 |①---|
①口①口 |②---|
②口口口 |③---|
③口口口 |----|
105
口口口口 |①---|
口①口① |②---|
口口口② |③---|
口口口③ |----|
106
口②③口 |①-②-|
①口口④ |③-④-|
⑤口口⑧ |⑤-⑥-|
口⑥⑦口 |⑦-⑧-|
107
①④④② |①---|
口①②口 |②---|
口口口口 |③---|
③口口③ |④---|

不確定度: 0

最終更新:2016年07月27日 22:18