Crack Traxxxx
Lite Show Magic (t+pazolite vs C-Show)

EXTREME

Level: 10
BPM: 220
Notes: 901

1
口口口口 |----|
口口口口 |----|
口口口口 |----|
口口口口 |----|
2
口口口口 |----|
口口口口 |----|
口口口口 |----|
口口口口 |----|
3
口口口口 |----|
口口口口 |----|
口口口口 |----|
口口口口 |----|
4
⑦③口口 |①-②-|
①口④口 |③-④-|
⑤口口⑥ |⑤-⑥-|
口口⑧② |⑦-⑧-|
5
口口④⑧ |①-②-|
口⑤口口 |③-④-|
口①口⑥ |⑤-⑥-|
③⑦口② |⑦-⑧-|
6
⑦③口口 |①-②-|
①口④口 |③-④-|
⑤口口⑥ |⑤-⑥-|
口口⑧② |⑦-⑧-|
7
口口④⑧ |①-②-|
口⑤口口 |③-④-|
口①口⑥ |⑤-⑥-|
③⑦口② |⑦-⑧-|
8
②①口口 |①---|
①口②① |--②-|
口②①口 |----|
口口口② |----|
9
口口口口 |----|
③口口口 |----|
②口口口 |--①-|
①口口口 |②-③-|
10
口⑥口口 |--①-|
口口口③ |②-③-|
口口口② |④-⑤-|
口④⑤① |⑥---|
11
①口⑥① |①---|
口②⑤⑥ |②-③-|
⑥④③口 |④-⑤-|
口⑥口口 |⑥---|
12
①①口② |①---|
③②③口 |--②-|
口③②③ |----|
口口口① |③---|
13
①口③口 |①---|
口④④③ |②---|
③口口口 |③---|
④②④② |④---|
14
②②③① |①---|
①口口③ |--②-|
③口②① |----|
口③口口 |③---|
15
口口口① |①---|
②③口口 |②---|
④⑤⑥⑦ |③---|
③口③② |④⑤⑥⑦|
16
⑥④①② |①-②-|
口⑦③① |③-④-|
口口⑧口 |⑤-⑥-|
口口⑤⑤ |⑦-⑧-|
17
⑥④①② |①-②-|
口⑦③① |③-④-|
口口⑧口 |⑤-⑥-|
⑤⑤口口 |⑦-⑧-|
18
⑦⑥⑤④ |①-②-|
口⑦④③ |③-④-|
口口口② |⑤-⑥-|
口口①① |⑦---|
19
口口口④ |①---|
口口口口 |②---|
口口口口 |③---|
①②③口 |④---|
20
①⑩⑨⑧ |①-②③|
口⑥口口 |④-⑤-|
②③④口 |⑥-⑦-|
口⑦口⑤ |⑧⑨⑩-|
21
口口口口 |①-②-|
①口口③ |③-④-|
口⑤⑥口 |⑤-⑥-|
②⑦⑦④ |⑦---|
22
②③④口 |①-②③|
⑥口①口 |④-⑤-|
口口口⑤ |⑥-⑦-|
⑦⑩⑨⑧ |⑧⑨⑩-|
23
口⑥⑤口 |①-②-|
口①③口 |③-④-|
⑥②④⑤ |⑤---|
口口口口 |⑥---|
24
①口口口 |①-②③|
⑥⑩⑨⑧ |④-⑤-|
口口⑤口 |⑥-⑦-|
⑦④③② |⑧⑨⑩-|
25
①口口③ |①-②-|
口口口⑦ |③-④-|
②⑤⑥④ |⑤-⑥-|
口口口⑦ |⑦---|
26
②⑤⑧⑪ |①-②③|
③⑥⑨⑫ |④-⑤⑥|
④⑦⑩口 |⑦-⑧⑨|
①④⑦⑩ |⑩-⑪⑫|
27
③口口口 |①---|
口口口口 |②---|
②④④口 |③---|
①③口口 |④---|
28
⑩⑥口⑤ |①-②③|
②③④⑦ |④-⑤-|
⑩⑨⑧⑤ |⑥-⑦-|
②口①⑦ |⑧⑨⑩-|
29
口⑤⑥④ |①-②-|
②口③口 |③-④-|
口口⑦④ |⑤-⑥-|
②⑦①口 |⑦---|
30
⑩⑥口⑤ |①-②③|
②③④⑦ |④-⑤-|
⑩⑨⑧⑤ |⑥-⑦-|
②口①⑦ |⑧⑨⑩-|
31
口⑤⑥④ |①-②-|
②⑦③⑦ |③-④-|
口口口④ |⑤-⑥-|
②⑦①⑦ |⑦---|
32
口⑥⑦④ |①-②-|
②口③⑦ |③-④-|
⑦口①④ |⑤-⑥-|
②⑦⑤口 |⑦---|
33
口口口④ |①-②-|
②③⑤⑦ |③-④-|
⑦⑥⑦④ |⑤-⑥-|
②⑦口① |⑦---|
34
①⑦④口 |①-②③|
⑤⑥⑦口 |④-⑤⑥|
⑪⑩⑨⑧ |⑦---|
口口③② |⑧⑨⑩⑪|
35
①口口② |①---|
口口口口 |②---|
口口口口 |③---|
③口口④ |④---|
36
口③口口 |①---|
②口③口 |②---|
③口口① |③---|
口③口口 |----|
37
⑧口口口 |①-②-|
⑥⑦口⑤ |③-④-|
口口口④ |⑤-⑥-|
①口③② |⑦-⑧-|
38
口⑥口口 |①---|
⑥口口口 |②-③-|
②①①③ |④---|
④⑤④口 |⑤-⑥-|
39
①口④② |--①-|
口①口口 |--②-|
口⑤③口 |③-④-|
⑤口口③ |⑤---|
40
口③口口 |①---|
②口③口 |②---|
③口口① |③---|
口③口口 |----|
41
⑧口口口 |①-②-|
⑥⑦口⑤ |③-④-|
口口口④ |⑤-⑥-|
①口③② |⑦-⑧-|
42
口⑧口口 |①-②-|
口⑦②口 |③-④-|
④口①⑥ |⑤-⑥-|
③口口⑤ |⑦-⑧-|
43
口口口② |①-②-|
口口口① |③-④-|
口④⑥口 |⑤-⑥-|
⑦③⑤⑦ |⑦---|
44
口③口口 |①---|
②口③口 |②---|
③口口① |③---|
口③口口 |----|
45
⑧口口口 |①-②-|
⑥⑦口⑤ |③-④-|
口口口④ |⑤-⑥-|
①口③② |⑦-⑧-|
46
口⑥口口 |①---|
⑥口口口 |②-③-|
②①①③ |④---|
④⑤④口 |⑤-⑥-|
47
①口④② |--①-|
口①口口 |--②-|
口⑤③口 |③-④-|
⑤口口③ |⑤---|
48
口③口④ |①---|
②口③口 |②---|
③口口① |③---|
口③口口 |④---|
49
口⑨⑩口 |①-②-|
⑥⑦⑧⑤ |③-④-|
口口口④ |⑤-⑥-|
①口③② |⑦⑧⑨⑩|
50
①口口口 |①---|
口口口口 |--②-|
①②③口 |--③-|
口④口口 |--④-|
51
⑦⑥⑤④ |①-②-|
口⑦④③ |③-④-|
口口口② |⑤-⑥-|
口口①① |⑦---|
52
口口口口 |①---|
口口口口 |②---|
口⑤④口 |③---|
口③②① |④-⑤-|
53
②口口① |①---|
口口口口 |②---|
口口口口 |③---|
④口口③ |④---|
54
口②口口 |①---|
口口口口 |--②-|
口口④口 |--③-|
口③①口 |--④-|
55
口口口口 |①---|
口①口口 |----|
口口口口 |----|
口口口口 |----|
56
②口口口 |①---|
口④③口 |②-③-|
④⑥口口 |④---|
①口⑤① |⑤-⑥-|
57
④口①⑤ |①---|
口口口① |②-③-|
④口口③ |④---|
口②口口 |⑤---|
58
③①②口 |①---|
口口口口 |--②-|
口口口口 |--③-|
口②①④ |--④-|
59
口口口口 |①-②-|
②④⑥⑧ |③-④-|
①③⑤⑦ |⑤-⑥-|
口口口口 |⑦-⑧-|
60
①口⑥③ |①---|
口④口⑥ |②-③-|
①②口口 |④---|
⑤④②① |⑤-⑥-|
61
⑧⑥口口 |①-②-|
⑧⑩⑤⑩ |③④⑤⑥|
②④②口 |⑦-⑧-|
⑨⑦③① |⑨-⑩-|
62
⑧⑥②口 |①-②-|
⑥⑧④口 |③-④-|
口⑦②④ |⑤-⑥-|
⑦⑤③① |⑦-⑧-|
63
口口口口 |①-②-|
口口⑥① |③-④-|
②口③④ |⑤---|
⑥⑤⑤① |⑥---|
64
⑤④②① |①---|
①②⑤⑥ |②-③-|
④①口口 |④---|
口口口③ |⑤-⑥-|
65
⑩⑥③① |①-②-|
口⑤⑪⑬ |③-④⑤|
⑧④口⑦ |⑥⑦⑧⑨|
⑫②②⑨ |⑩⑪⑫⑬|
66
⑥④②① |①---|
④口口口 |②-③-|
口口①⑤ |④-⑤-|
⑦②③口 |⑥-⑦-|
67
④④③口 |①---|
④口口③ |②---|
②口①口 |③---|
口②口① |④---|
68
口口⑧④ |①-②-|
口⑤②⑧ |③-④-|
口③①⑥ |⑤-⑥-|
⑦⑤③① |⑦-⑧-|
69
⑧⑥口口 |①-②-|
⑧⑩⑤⑩ |③④⑤⑥|
②④②口 |⑦-⑧-|
⑨⑦③① |⑨-⑩-|
70
⑧⑥②口 |①-②-|
⑥⑧④口 |③-④-|
口⑦②④ |⑤-⑥-|
⑦⑤③① |⑦-⑧-|
71
口口口口 |①-②-|
口口⑥① |③-④-|
②口③④ |⑤---|
⑥⑤⑤① |⑥---|
72
①口③① |①---|
口②③① |--②-|
②①②口 |----|
③③口② |③---|
73
口①口① |--①-|
①④④口 |--②-|
口③②① |③---|
口口口口 |--④-|
74
④⑦⑦① |--①-|
②口口⑤ |②-③-|
⑥口口③ |④-⑤-|
口口口口 |⑥-⑦-|
75
口口口② |①---|
口口口口 |----|
口口口口 |----|
口①①口 |②---|
76
口口口口 |①---|
口口口口 |②---|
口⑤④口 |③---|
口③②① |④-⑤-|
77
②口口① |①---|
口口口口 |②---|
口口口口 |③---|
④口口③ |④---|
78
口②口口 |①---|
口口口口 |--②-|
口口④口 |--③-|
口③①口 |--④-|
79
口口口口 |①---|
口①口口 |----|
口口口口 |----|
口口口口 |----|
80
口口口口 |①---|
口口口口 |②---|
口⑤④口 |③---|
口③②① |④-⑤-|
81
口口口① |①---|
口口口口 |----|
口口口口 |----|
口口口口 |----|
82
口口口⑤ |①-②-|
①②口口 |③-④-|
③④口口 |⑤-⑥-|
口口口⑥ |----|
83
口口口口 |①-②-|
口口①② |③-④-|
口口③④ |----|
口⑤口口 |⑤---|
84
⑩⑥口⑤ |①-②③|
②③④⑦ |④-⑤-|
⑩⑨⑧⑤ |⑥-⑦-|
②口①⑦ |⑧⑨⑩-|
85
口⑤⑥④ |①-②-|
②口③口 |③-④-|
口口⑦④ |⑤-⑥-|
②⑦①口 |⑦---|
86
①⑧口⑥ |①-②③|
口口④口 |④-⑤-|
口③口口 |⑥-⑦-|
⑤⑨②⑦ |⑧-⑨-|
87
⑤口口口 |①-②-|
②口口① |③-④-|
④⑦⑦③ |⑤-⑥-|
口口口⑥ |⑦---|
88
⑩⑥口⑤ |①-②③|
②③④⑦ |④-⑤-|
⑩⑨⑧⑤ |⑥-⑦-|
②口①⑦ |⑧⑨⑩-|
89
口⑤⑥④ |①-②-|
②口③口 |③-④-|
口口⑦④ |⑤-⑥-|
②⑦①口 |⑦---|
90
①口口⑥ |①-②-|
口③口② |③---|
③⑤口⑥ |④-⑤-|
口口④口 |⑥---|
91
①④⑤口 |①-②-|
口口②口 |③---|
③⑥⑥口 |④-⑤-|
口③口口 |⑥---|
92
⑩⑥口⑤ |①-②③|
②③④⑦ |④-⑤-|
⑩⑨⑧⑤ |⑥-⑦-|
②口①⑦ |⑧⑨⑩-|
93
口⑤⑥④ |①-②-|
②口③口 |③-④-|
口口⑦④ |⑤-⑥-|
②⑦①口 |⑦---|
94
①口口④ |①-②-|
口⑤⑧口 |③-④-|
口⑦口口 |⑤-⑥-|
③口⑥② |⑦-⑧-|
95
⑤①口口 |①-②-|
口口口⑥ |③-④-|
⑦⑦⑦② |⑤-⑥-|
口③口④ |⑦---|
96
⑩⑥口⑤ |①-②③|
②③④⑦ |④-⑤-|
⑩⑨⑧⑤ |⑥-⑦-|
②口①⑦ |⑧⑨⑩-|
97
口⑤⑥④ |①-②-|
②口③口 |③-④-|
口口⑦④ |⑤-⑥-|
②⑦①口 |⑦---|
98
①⑦⑧口 |①-②③|
口⑨⑥⑤ |④-⑤⑥|
④⑦⑩口 |⑦---|
口⑪③② |⑧⑨⑩⑪|
99
口口口① |①---|
②口口口 |②---|
口④口③ |③---|
口口④口 |④---|
100
①①口② |①---|
③②③口 |--②-|
口③②③ |----|
口口口① |③---|
101
①口③口 |①---|
口④④③ |②---|
③口口口 |③---|
④②④② |④---|
102
②②③① |①---|
①口口③ |--②-|
③口②① |----|
口③口口 |③---|
103
口口口① |①---|
②③口口 |②---|
④⑤⑥⑦ |③---|
③口③② |④⑤⑥⑦|
104
⑥④①② |①-②-|
口⑦③① |③-④-|
口口⑧口 |⑤-⑥-|
口口⑤⑤ |⑦-⑧-|
105
⑥④①② |①-②-|
口⑦③① |③-④-|
口口⑧口 |⑤-⑥-|
⑤⑤口口 |⑦-⑧-|
106
⑦⑥⑤④ |①-②-|
口⑦④③ |③-④-|
口口口② |⑤-⑥-|
口口①① |⑦---|
107
口口口④ |①---|
口口口口 |②---|
口口口口 |③---|
①②③口 |④---|

不確定度: 0

最終更新:2016年07月27日 22:17