バリ3共和国
でんぱ組.inc

ADVANCED

Level: 7
BPM: 183
Notes: 493

1
口口口口 |----|
口口口口 |----|
口口口口 |----|
口口口口 |----|
2
口口口口 |----|
口口口口 |----|
口口口口 |----|
口口口口 |----|
3
口口口口 |----|
口口口口 |----|
口口口口 |----|
口口口口 |----|
4
口口口口 |----|
口口口口 |----|
口口口口 |----|
口口口口 |----|
5
口口口口 |----|
口口口口 |----|
口口口口 |----|
口口口口 |----|
6
口口③② |①---|
口口口口 |②---|
口口④口 |③---|
口①口口 |④---|
7
口①口口 |①---|
④口口④ |②---|
③②口③ |③---|
口口口口 |④---|
8
②③口口 |①---|
口口口口 |②---|
口④口口 |③---|
口口①口 |④---|
9
口口①口 |①---|
④口口④ |②---|
③口②③ |③---|
口口口口 |④---|
10
口口③② |①---|
口口口口 |②---|
口口④口 |③---|
口①口口 |④---|
11
口①口口 |①---|
④口口④ |②---|
③②口③ |③---|
口口口口 |④---|
12
②③口口 |①---|
口口口口 |②---|
口④口口 |③---|
口口①口 |④---|
13
口口①口 |①---|
④口口④ |②---|
③口②③ |③---|
口口口口 |④---|
14
⑤口④口 |①-②-|
口③口口 |③-④-|
⑥口②口 |⑤---|
口①①口 |⑥---|
15
口口口口 |①---|
口口③③ |②---|
口口口② |③---|
口口口① |----|
16
④口③⑤ |--①-|
⑥②口⑦ |②-③-|
口口①口 |④-⑤-|
口口口口 |⑥-⑦-|
17
口口口口 |①---|
口②③口 |----|
口④口口 |--②-|
口①①口 |③-④-|
18
⑧口口⑦ |①-②-|
⑥口口⑤ |③-④-|
④口口③ |⑤-⑥-|
②口口① |⑦-⑧-|
19
口③③口 |①-②-|
口②口口 |--③-|
口口①口 |--④-|
⑤⑤④④ |⑤---|
20
②口口① |①-②-|
④口口③ |③-④-|
⑥口口⑤ |⑤-⑥-|
⑧口口⑦ |⑦-⑧-|
21
⑥⑥⑤⑤ |①-②-|
口口口口 |③-④-|
口④③口 |--⑤-|
口②①口 |⑥---|
22
⑥口口口 |①-②-|
⑤口口口 |③-④-|
口③④口 |⑤---|
口①②口 |⑥---|
23
口口口② |①---|
口⑤口① |②---|
口口④口 |--③-|
口③口口 |④-⑤-|
24
④口口口 |--①-|
口口③口 |②-③-|
②⑤⑤口 |④---|
口口①口 |⑤---|
25
④②④② |①---|
口口口口 |②---|
口口口口 |③---|
③①③① |④---|
26
口口口口 |--①-|
口口口② |----|
口①①口 |②---|
口口口③ |③---|
27
④④③③ |①---|
②②口口 |--②-|
口口口口 |--③-|
口①口口 |④---|
28
口⑦⑥口 |--①-|
口⑤④口 |②-③-|
口③②口 |④-⑤-|
口①口口 |⑥-⑦-|
29
口口口口 |①---|
口口口口 |②---|
②④③① |③---|
②④③① |④---|
30
口口口口 |①---|
①③口口 |--②-|
口口②口 |③---|
口口④口 |--④-|
31
口口②口 |①---|
口口③口 |②---|
口①④口 |③---|
口口口口 |④---|
32
口口口口 |①---|
口②口口 |----|
口口③口 |--②-|
口④①口 |③-④-|
33
口口口口 |----|
口口口口 |----|
口口口口 |----|
口口口① |①---|
34
口口口口 |①---|
口③口口 |--②-|
口口②口 |③---|
口①④口 |--④-|
35
口口②口 |①---|
口口③口 |②---|
口①④口 |③---|
口口口口 |④---|
36
口④口口 |①---|
口②③口 |----|
口口口口 |②---|
口口①口 |③-④-|
37
口口口口 |----|
口口口口 |----|
口①①口 |--①-|
口口口口 |----|
38
②口口① |①-②-|
④口口③ |③-④-|
⑥口口⑤ |⑤-⑥-|
⑧口口⑦ |⑦-⑧-|
39
口⑤⑤③ |①-②-|
口④④口 |--③-|
口②口口 |--④-|
口口①口 |⑤---|
40
⑧口口⑦ |①-②-|
⑥口口⑤ |③-④-|
④口口③ |⑤-⑥-|
②口口① |⑦-⑧-|
41
口口③口 |①-②-|
口口口口 |--③-|
口②口口 |----|
口口①口 |----|
42
②③③② |①---|
口口口口 |--②-|
口口口口 |----|
口①①口 |③---|
43
口口口口 |--①-|
口⑤④口 |----|
口③②口 |②-③-|
①口口① |④-⑤-|
44
口②②口 |①---|
口口口口 |----|
口③③口 |②---|
①口口① |--③-|
45
①口口① |①---|
口口④口 |----|
口口③口 |--②-|
口口②口 |③-④-|
46
口②④口 |①---|
②口口④ |②---|
口口口口 |③---|
①①③③ |④---|
47
②口口④ |①---|
口②④口 |②---|
口口口口 |③---|
①①③③ |④---|
48
口②①口 |①---|
④口口③ |②---|
①①②② |③---|
③③④④ |④---|
49
④②②④ |①---|
口①①口 |②---|
③②②③ |③---|
口口口口 |④---|
50
口⑧口口 |①-②-|
口⑥③口 |③-④-|
口④⑤口 |⑤-⑥-|
②口⑦① |⑦-⑧-|
51
②口口⑦ |①-②-|
④口口⑤ |③-④-|
⑥口口③ |⑤-⑥-|
⑧口口① |⑦-⑧-|
52
口⑧①口 |①-②-|
口⑥③口 |③-④-|
口④⑤口 |⑤-⑥-|
口②⑦口 |⑦-⑧-|
53
②口口口 |①---|
口口⑤① |②---|
①口④口 |--③-|
口口③② |④-⑤-|
54
口②④口 |①---|
②口口④ |②---|
口口口口 |③---|
①①③③ |④---|
55
②口口④ |①---|
口②④口 |②---|
口口口口 |③---|
①①③③ |④---|
56
口②①口 |①---|
④口口③ |②---|
①①②② |③---|
③③④④ |④---|
57
④②②④ |①---|
口①①口 |②---|
③②②③ |③---|
口口口口 |④---|
58
口⑧口口 |①-②-|
口⑥③口 |③-④-|
口④⑤口 |⑤-⑥-|
②口⑦① |⑦-⑧-|
59
②口口⑦ |①-②-|
④口口⑤ |③-④-|
⑥口口③ |⑤-⑥-|
⑧口口① |⑦-⑧-|
60
口⑧①口 |①-②-|
口⑥③口 |③-④-|
口④⑤口 |⑤-⑥-|
口②⑦口 |⑦-⑧-|
61
②④③口 |①---|
口口口① |②---|
①口口口 |③---|
口③④② |④---|
62
口口口② |①-②-|
①口①③ |③-④-|
口①④①
口口口口

口⑦口口
口口⑧口
⑥口口口 |⑤-⑥-|
口⑤口口 |⑦-⑧-|
63
①口②口 |--①-|
口③口④ |②-③-|
⑤口⑥口 |④-⑤-|
口⑦口口 |⑥-⑦-|
64
①口口口 |--①-|
②口④口 |②-③-|
口③口⑤ |④-⑤-|
⑦口口⑥ |⑥-⑦-|
65
口②口① |--①-|
⑦口③⑦ |②-③-|
④⑥⑥口 |④-⑤-|
口⑤⑤口 |⑥-⑦-|
66
⑥①①⑥ |--①-|
口②②口 |②-③-|
③⑤⑤③ |--④-|
口④④口 |⑤-⑥-|
67
口①①口 |--①-|
⑥②②⑥ |②-③-|
口⑤⑤口 |--④-|
③④④③ |⑤-⑥-|
68
⑥①①⑥ |--①-|
口②②口 |②-③-|
③⑤⑤③ |--④-|
口④④口 |⑤-⑥-|
69
口口口口 |---①|
①口口① |----|
①口口① |----|
口口口口 |----|
70
口口③② |①---|
口口口口 |②---|
口口④口 |③---|
口①口口 |④---|
71
口①口口 |①---|
④口口④ |②---|
③②口③ |③---|
口口口口 |④---|
72
②③口口 |①---|
口口口口 |②---|
口④口口 |③---|
口口①口 |④---|
73
口口①口 |①---|
④口口④ |②---|
③口②③ |③---|
口口口口 |④---|
74
口口③② |①---|
口口口口 |②---|
口口④口 |③---|
口①口口 |④---|
75
口①口口 |①---|
④口口④ |②---|
③②口③ |③---|
口口口口 |④---|
76
②③口口 |①---|
口口口口 |②---|
口④口口 |③---|
口口①口 |④---|
77
口口①口 |①---|
④口口④ |②---|
③口②③ |③---|
口口口口 |④---|
78
口口口口 |①---|
口口口口 |----|
口口口口 |----|
①①①口 |----|
79
口口口口 |①---|
口口口口 |----|
口①①① |----|
口口口口 |----|
80
口口口口 |①---|
①①①口 |----|
口口口口 |----|
口口口口 |----|
81
①口口① |--①-|
口口口口 |----|
①口口① |----|
口口口口 |----|
82
口口口口 |①---|
口①①口 |----|
口①①口 |----|
口口口口 |----|

不確定度: 0

最終更新:2016年07月27日 22:30