バリ3共和国
でんぱ組.inc

EXTREME

Level: 9
BPM: 183
Notes: 715

1
口口口口 |----|
口口口口 |----|
口口口口 |----|
口口口口 |----|
2
②②②① |①---|
口口①口 |----|
口①口口 |②---|
口口①口 |----|
3
口口口② |①-②-|
①口④⑥ |③-④-|
③口②⑥ |⑤---|
⑤口口④ |⑥---|
4
①②②② |①---|
口①口口 |----|
口口①口 |②---|
口①口口 |----|
5
②⑥⑥口 |①-②-|
口④口① |③-④-|
口②口③ |⑤---|
④口口⑤ |⑥---|
6
③⑦口② |①---|
口口④口 |②---|
口⑤①口 |③-④⑤|
②口⑥口 |⑥-⑦-|
7
口口①③ |①-②-|
口⑤⑤口 |③-④-|
⑥口口⑥ |⑤---|
④②口口 |⑥---|
8
②口⑦③ |①---|
口④口口 |②---|
口①⑤口 |③-④⑤|
口⑥口② |⑥-⑦-|
9
③①口口 |①-②-|
⑤⑥⑥⑤ |③-④-|
口口口口 |⑤---|
口口②④ |⑥---|
10
③⑦口② |①---|
口口④口 |②---|
口⑤①口 |③-④⑤|
②口⑥口 |⑥-⑦-|
11
口口①③ |①-②-|
口⑤⑤口 |③-④-|
⑥口口⑥ |⑤---|
④②口口 |⑥---|
12
②口⑦③ |①---|
口④口口 |②---|
口①⑤口 |③-④⑤|
口⑥口② |⑥-⑦-|
13
③①口口 |①-②-|
口⑤⑤口 |③-④-|
⑥口口⑥ |⑤---|
口口②④ |⑥---|
14
⑧⑦⑥① |①-②-|
口口④⑤ |③-④-|
口③①口 |⑤-⑥-|
②口口口 |⑦-⑧-|
15
口口口口 |①-②-|
①口口口 |③-④-|
口②口口
口口③④

口口口口
⑦口口口
⑥口口口 |--⑤-|
⑤口口口 |⑥-⑦-|
16
口⑦①⑤ |①-②-|
⑧口⑥④ |③-④-|
口口③① |⑤-⑥-|
口②口口 |⑦-⑧-|
17
口口口口 |①-②-|
口口⑦口 |③-④-|
①⑥口④ |--⑤-|
⑤②③口 |⑥-⑦-|
18
⑥③⑦② |①-②-|
①⑤口口 |③-④-|
③⑥⑤⑦ |⑤---|
口①口④ |⑥-⑦-|
19
口口口口 |①-②-|
①⑤④② |--③-|
口⑤④口 |--④-|
③①②③ |⑤---|
20
口③②② |①-②-|
①⑥⑦口 |③-④-|
③口⑤⑤ |⑤---|
口①④④ |⑥-⑦-|
21
①②①② |①-②-|
③口口④ |③-④-|
口⑥⑤口 |--⑤-|
③⑥⑤④ |⑥---|
22
①①④口 |①-②-|
口③口口 |③-④-|
②口口口
口口口口

口⑧口⑦
口口口⑥
口口口⑤ |⑤-⑥-|
口口口口 |⑦-⑧-|
23
口口口口 |①-②-|
①口口口 |③-④-|
口②口口
口口③④

口口口口
⑦口口口
⑥口口口 |--⑤-|
⑤口口口 |⑥-⑦-|
24
口⑦①⑤ |①-②-|
⑧口⑥④ |③-④-|
口口③① |⑤-⑥-|
口②口口 |⑦-⑧-|
25
①④①④ |①---|
口②③口 |②---|
口①④口 |③---|
②③②③ |④---|
26
①⑦②⑧ |①-②-|
⑤口⑥④ |③-④-|
⑦口⑧② |⑤-⑥-|
③⑤④⑥ |⑦-⑧-|
27
①④②口 |①-②-|
⑤口口④ |--③-|
口①⑤② |--④-|
口③③口 |⑤---|
28
③口口② |①-②-|
口①口口 |③-④-|
口③口口
①口口④

口口⑥口
口⑧⑧口
口口⑦口 |⑤-⑥-|
口⑤口口 |⑦-⑧-|
29
口①④口 |①---|
①口口④ |②---|
③口口② |③---|
口③②口 |④---|
30
口口口口 |①---|
口口口口 |--②-|
口④口② |③---|
①口③① |--④-|
31
①口③口 |①---|
口②口④ |②---|
口口口口 |③---|
口口口口 |④---|
32
口口口口 |①---|
口口②口 |----|
口③口① |--②-|
④口口口 |③-④-|
33
口①①口 |----|
口口口口 |----|
口口口口 |----|
口口口口 |①---|
34
口口口口 |①---|
口口③口 |--②-|
口④口② |③---|
口①①口 |--④-|
35
①口口口 |①---|
②口口口 |②---|
③口口口 |③---|
④口口口 |④---|
36
口口口口 |①---|
口口口口 |----|
口①③② |②---|
口④口口 |③-④-|
37
口口①口 |----|
②口②口 |----|
口①口① |--①-|
口②口口 |--②-|
38
⑤③⑦① |①-②-|
口口口口 |③-④-|
④⑥②⑧ |⑤-⑥-|
口口口口 |⑦-⑧-|
39
③口④③ |①-②-|
口①①⑤ |--③-|
口口⑥口 |--④-|
口②②口 |⑤-⑥-|
40
⑤③口④ |①-②-|
②口口口 |③---|
⑤①口④ |④---|
口口口口 |⑤---|
41
口口口③ |①-②-|
口②①口 |--③-|
口口口③ |----|
口口口口 |----|
42
①③①③ |①---|
⑤①③口 |②-③-|
口⑤口口 |--④-|
⑤②④口 |⑤---|
43
②⑤④口 |①-②-|
口②口③ |--③-|
②口口① |④-⑤-|
口⑦⑥口 |⑥-⑦-|
44
口口口① |①---|
口口①口 |----|
口口口①
口口口口

口口③口
②口口口
口②口③ |②---|
②口口口 |--③-|
45
口①③③ |①---|
口口口口 |----|
①口④④ |--②-|
口口②② |③-④-|
46
②②④④ |①---|
口口①① |②---|
②②④④ |③---|
③口③口 |④---|
47
②②④④ |①---|
口口口口 |②---|
②②④④ |③---|
③①③① |④---|
48
③②口④ |①---|
口口口① |②---|
口②口口 |③---|
口④③① |④---|
49
口④口④ |①---|
①②②① |②---|
①②②① |③---|
③口③口 |④---|
50
④⑧②⑥ |①-②-|
⑧④⑥② |③-④-|
口口口口 |⑤-⑥-|
⑤①⑦③ |⑦-⑧-|
51
④⑧②⑥ |①-②-|
⑧④⑥② |③-④-|
口⑤口⑦ |⑤-⑥-|
⑤①⑦③ |⑦-⑧-|
52
③⑧②⑥ |①-②-|
⑧③⑥② |③-④-|
①⑤④⑦ |⑤-⑥-|
⑤①⑦④ |⑦-⑧-|
53
②口④④ |①---|
口②口口 |②---|
①口⑤⑤ |--③-|
口①③③ |④-⑤-|
54
②②④④ |①---|
口口①① |②---|
②②④④ |③---|
③口③口 |④---|
55
②②④④ |①---|
口口口口 |②---|
②②④④ |③---|
③①③① |④---|
56
③②口④ |①---|
口口口① |②---|
口②口口 |③---|
口④③① |④---|
57
口④口④ |①---|
①②②① |②---|
①②②① |③---|
③口③口 |④---|
58
④⑧②⑥ |①-②-|
⑧④⑥② |③-④-|
口口口口 |⑤-⑥-|
⑤①⑦③ |⑦-⑧-|
59
④⑦②⑥ |①-②-|
⑦④⑥② |③-④-|
①⑤③⑧ |⑤-⑥-|
⑤①⑧③ |⑦-⑧-|
60
③口②口 |①-②-|
口③口② |③-④-|
①口④口
口①口④

口⑦口⑥
⑦口⑥口
口⑤口口 |⑤-⑥-|
⑤⑧⑧口 |⑦-⑧-|
61
③口口④ |①---|
口②口口 |②---|
①口②① |③---|
③口口④ |④---|
62
口①①口 |①-②-|
②口口口 |③-④-|
口③④口
口①①口

口⑧口⑦
口口口⑥
口口口⑤ |⑤-⑥-|
口口口口 |⑦-⑧-|
63
④口口口 |--①②|
⑧口①口 |③-④-|
⑦②口⑥ |⑤-⑥-|
口口③⑤ |⑦-⑧-|
64
④口①⑤ |--①②|
口②口⑥ |③-④-|
口⑦③口 |⑤-⑥-|
口⑧口口 |⑦-⑧-|
65
⑨③⑧④ |--①②|
口口②⑨ |③-④-|
口⑦①口 |⑤-⑥⑦|
⑤口⑥口 |⑧-⑨-|
66
⑧③⑦④ |--①②|
④口口⑧ |③-④-|
口⑥②口 |--⑤⑥|
口①⑤口 |⑦-⑧-|
67
⑧③⑦④ |--①②|
④口口⑧ |③-④-|
口⑥②口 |--⑤⑥|
口①⑤口 |⑦-⑧-|
68
⑧③⑦④ |--①②|
④口口⑧ |③-④-|
口⑥②口 |--⑤⑥|
口①⑤口 |⑦-⑧-|
69
口口口口 |---①|
①①口口 |---②|
①口口② |----|
口口②② |----|
70
③⑦口② |①---|
口口④口 |②---|
口⑤①口 |③-④⑤|
②口⑥口 |⑥-⑦-|
71
口口①③ |①-②-|
口⑤⑤口 |③-④-|
⑥口口⑥ |⑤---|
④②口口 |⑥---|
72
②口⑦③ |①---|
口④口口 |②---|
口①⑤口 |③-④⑤|
口⑥口② |⑥-⑦-|
73
③①口口 |①-②-|
⑤⑥⑥⑤ |③-④-|
口口口口 |⑤---|
口口②④ |⑥---|
74
③⑦口② |①---|
口口④口 |②---|
口⑤①口 |③-④⑤|
②口⑥口 |⑥-⑦-|
75
口口①③ |①-②-|
口⑤⑤口 |③-④-|
⑥口口⑥ |⑤---|
④②口口 |⑥---|
76
②口⑦③ |①---|
口④口口 |②---|
口①⑤口 |③-④⑤|
口⑥口② |⑥-⑦-|
77
③①口口 |①-②-|
口⑤⑤口 |③-④-|
⑥口口⑥ |⑤---|
口口②④ |⑥---|
78
⑥口口⑤ |①-②-|
口口口口 |③-④-|
口④③口 |--⑤-|
⑤②①⑥ |--⑥-|
79
口⑥⑤口 |①-②-|
④口口③ |③-④-|
②口口① |--⑤-|
口⑤⑥口 |--⑥-|
80
口口口口 |①-②-|
⑤④③⑥ |③-④-|
⑥②①⑤ |--⑤-|
口口口口 |--⑥-|
81
④口口口 |--①-|
口③⑥口 |②-③-|
口⑤②口 |④-⑤-|
口口口① |⑥---|
82
口①口口 |①---|
口口口① |----|
①口口口 |----|
口口①口 |----|

不確定度: 0

最終更新:2016年07月27日 22:29