天空の華
S-C-U × U1 overground

ADVANCED

Level: 9
BPM: 180
Notes: 685

1
口口口口 |----|
口口口口 |----|
口口口口 |----|
口口口口 |----|
2
①口口口 |①-②③|
口④③② |④-⑤⑥|
口口口口
口⑥⑤口

⑩口口⑨
口口口口
口⑧⑦口 |-⑦⑧-|
口口口口 |⑨-⑩-|
3
口⑦⑥口 |①-②③|
口③②口 |-④⑤-|
口⑨⑧口 |⑥⑦-⑧|
①⑤④⑩ |⑨-⑩-|
4
③⑦⑤① |①②-③|
④⑧⑥② |④-⑤⑥|
口口口口 |-⑦⑧-|
⑩口口⑨ |⑨-⑩-|
5
⑧口口① |①-②③|
⑫⑪⑩⑨ |④⑤⑥⑦|
④⑤⑥⑦ |--⑧-|
口②③口 |⑨⑩⑪⑫|
6
口④口① |①---|
口口口口 |②-③-|
③口口② |④---|
⑤⑥⑦⑧ |⑤⑥⑦⑧|
7
③③③口 |①--②|
②②口④ |--③-|
口①⑤口 |--④⑤|
口⑥口⑦ |⑥-⑦-|
8
③⑧③⑨ |①--②|
④⑤⑥⑦ |--③-|
口②口② |--④⑤|
①口①口 |⑥⑦⑧⑨|
9
⑬⑭⑮⑯ |①②③④|
⑨⑩⑪⑫ |⑤⑥⑦⑧|
⑤⑥⑦⑧ |⑨⑩⑪⑫|
①②③④ |⑬⑭⑮⑯|
10
口口口口 |①---|
口口口口
口口口口


口口口口
口口口口 |②-③-|

口口②


④口口口
口口口 |--④-|
口口口口 |⑤---|
11
口口口口 |--①-|
口④口③ |--②-|
口口①口 |--③-|
口口②口 |--④-|
12
口口口 |①---|
口口口口
口口口口


口口口④
口口⑤口 |②-③-|
|--④-|
②口口 |--⑤-|
13
口口①口 |--①-|
口口口② |--②-|
口口口③ |--③-|
口口口④ |--④-|
14
④④①① |①---|
口口③③ |②-③-|
口口 |----|
②②口口 |④---|
15
口口口口 |①---|
②②口口 |②-③-|
①①口口 |----|
口口③③ |----|
16
①口口① |①---|
口③口口 |②---|
口口④口 |③-④-|
②⑤口② |⑤---|
17
⑧⑨⑩口 |①---|
①②③① |--②③|
①口口① |④⑤⑥⑦|
④⑤⑥⑦ |⑧⑨⑩-|
18
口口口口 |①-②-|
|----|
①口口口
口口口口

口口口口
口口口
|----|
口口口③ |③-④-|
19
口口口口 |----|
口口 |--①-|

口口

口口
口口
口口口口 |--②-|
口口

口口口口
口口
③④口口
口口口口 |--③④|
20
口④③② |①-②③|
口口口口 |④-⑤⑥|
口口①口
⑤⑥口口

口口口口
口⑩⑨⑧
|⑦-⑧⑨|
口口⑦口 |⑩-⑪-|
21
口口口口 |----|
口口口口 |----|
口口口 |----|
口②③口 |①-②③|
22
④口口⑧ |①②③-|
口⑦⑥⑤ |④-⑤⑥|
①②③口 |⑦-⑧-|
⑨⑩⑪口 |⑨⑩⑪-|
23
⑧①⑤口 |①-②③|
口口⑦口 |④-⑤-|
口④③② |⑥--⑦|
口口口⑥ |--⑧-|
24
|①--②|
口②口口 |--③-|
口口口口 |----|
①口口口 |----|
25
口口口 |----|
⑧⑨⑩⑪ |①-②③|
口②③口 |④⑤⑥⑦|
④⑤⑥⑦ |⑧⑨⑩⑪|
26
|①-②-|
口口口口 |----|
①口口口
口口口口

口口口

口口口口 |----|
口口口③ |③-④-|
27
口口口口 |----|
|--①-|
口口
口口

口口
口口
口口口 |--②-|
口口

口口口口
③④口口
口口
口口口口 |--③④|
28
口④③② |①-②③|
口口①口 |④-⑤⑥|
口口口口
⑤⑥口口

口口口口

口⑩⑨⑧ |⑦-⑧⑨|
口口⑦口 |⑩-⑪-|
29
口口口口 |----|
口口口 |----|
口口口口 |----|
②③口口 |①-②③|
30
②⑦口③ |①-②-|
口⑩⑨⑧ |③-④⑤|
④⑤⑥口 |⑥-⑦-|
口口①口 |⑧⑨⑩-|
31
⑤口①口 |①-②③|
⑬⑫⑪⑩ |④-⑤-|
⑨⑧⑦⑥ |⑥⑦⑧⑨|
②③④口 |⑩⑪⑫⑬|
32
⑧⑦⑥⑤ |①②③④|
⑯⑮⑭⑬ |⑤⑥⑦⑧|
⑫⑪⑩⑨ |⑨⑩⑪⑫|
④③②① |⑬⑭⑮⑯|
33
⑧⑦⑥⑤ |①②③④|
⑯⑮⑭⑬ |⑤⑥⑦⑧|
⑫⑪⑩⑨ |⑨⑩⑪⑫|
④③②① |⑬⑭⑮⑯|
34
口口②② |①---|
口口口口 |②---|
口口口口
口口①①

口口口口
口口口口
口口口③ |--③-|
④⑤⑥口 |④-⑤-⑥-|
35
④⑤⑥口 |①-②-③-|
⑩③②① |④-⑤-⑥-|
口⑨⑧⑦ |⑦-⑧-⑨-|
口口口口 |⑩---|
36
②②③口 |①---|
口④⑥⑨ |②-③④|
⑩⑦⑤口 |⑤-⑥⑦|
①①⑧口 |⑧-⑨⑩|
37
口口口口 |①-|
口口口口
口口口口


|②-|
口口口口 |----|
口口口口 |③-|
口口口

口口口
口口
口口口 |④-|
口口口 |⑤---|
38
口③②② |①---|
①口口① |②-③④|
口口④口
口①

⑥口口口
口口口口
口口口口 |⑤-⑥-|
⑤⑨⑧⑦ |⑦-⑧-⑨-|
39
⑦⑧⑨口 |①-②-③-|
①②③口 |④-⑤-⑥-|
口⑥⑤④ |⑦-⑧-⑨-|
口⑫⑪⑩ |⑩-⑪-⑫-|
40
口⑤口① |①-②③|
口②⑥① |④-⑤⑥|
口口③口
④口口口

⑧口口口
⑪口口⑫
口⑦口⑨ |⑦-⑧⑨|
口⑩口口 |⑩-⑪⑫|
41
口口口② |①---|
口口②口 |②-③-|
①口③口
口口口③

⑤口口口
⑦⑤口⑥
⑦④口⑥ |④-⑤-|
④口口口 |⑥-⑦-|
42
口口口② |①-②-|
口口④口 |③-④⑤|
口⑤口口
口口①③

口⑦口口
口口
口口口 |⑥-⑦-|
⑥口口 |--⑧-|
43
口口口口 |----|
口口口口 |--①-|

口口

口口口口

口口口 |--②-|
口口口口

口③口口
口口④
口口口口
口口口口 |--③④|
44
②口口口 |①-②③|
口⑤口口 |④-⑤⑥|
口④⑥③
口①口口

口口口口
⑧口口⑨
⑩口口口 |⑦-⑧⑨|
⑦⑪⑫口 |⑩-⑪⑫|
45
①②③④ |①②③④|
口⑤口口 |⑤---|
口口口口 |----|
口口口口 |----|
46
口⑤①口 |①---|
口④③② |②---|
⑤口口① |③-④-|
口口②③ |⑤---|
47
③口口② |①---|
①口口口 |②-③-|
口口口口 |④-⑤-|
⑤①口④ |----|
48
③②①③ |①---|
⑤口口⑤ |②---|
①④④② |③--④|
⑤口口⑤ |--⑤-|
49
口口口口 |----|
口口口口 |----|
口口口口 |----|
口口口口 |----|
50
|①-②-|
口口口口 |----|
口口口口
①口口口

口口口

口口口③ |----|
口口口口 |③-④-|
51
口口口口 |----|
口口口 |----|
口口口口 |----|
口口口口 |①---|
52
口口口① |①-②-|
口⑦④口 |③-④-|
口③⑥口 |--⑤-|
②口口⑤ |⑥-⑦-|
53
口口口口 |----|
口口口口 |----|
口口口口 |----|
口口口口 |----|
54
|①-②-|
口口③口 |③-④-|
口②口口
①口口口

口口口
口口口口
口口口口 |----|
口口口口 |⑤---|
55
|①-②-|
口③口口 |③-④-|
口口②口
口口口①

口口口
口口口口
口口口口 |----|
口口口口 |⑤---|
56
口口③③ |①---|
口口口口 |②-③-|
④④口口 |--④-|
②口①① |----|
57
口 |①---|
口 |----|
口口口口 |----|
口口口口 |----|
58
口口口口 |①---|

口口口口


口口口口
口口口口 |②-③-|

口口②


④口⑥口
口口口 |--④-|
口口口口 |⑤-⑥-|
59
口口口口 |--①-|
口④口③ |--②-|
口口①口 |--③-|
口口②口 |--④-|
60
口口口 |①---|
口口口口
口口口口


口口口④
口口⑤口 |②-③-|
|--④-|
②口口 |--⑤-|
61
口口①口 |--①-|
口口口② |--②-|
口口口③ |--③-|
口口口④ |--④-|
62
|①---|
口口口口
口口
口口口口

口口口
口 |②-③-|
②口口口
口口口口

口口

口口口 |--④-|
口④口 |⑤---|
63
口①口口 |--①-|
口②口口 |--②-|
口③口口 |--③-|
口④口口 |--④-|
64
口口口口 |①---|
口口口口

口口

口口口口
|--②-|
口口口
口口口口

口口口口
口口口
口口口口 |----|
③口口③ |③---|
65
口 |①---|
口 |----|

口口口口


口口口口
口口口口 |----|
口口口口 |②---|
66
⑦口口① |①-②③|
口⑤⑥⑧ |④-⑤⑥|
⑨口口口 |--⑦-|
②③④口 |⑧-⑨-|
67
口②③口 |①-②③|
口⑥⑦口 |-④⑤-|
口④⑤口 |⑥⑦-⑧|
⑩⑧⑨① |⑨-⑩-|
68
⑩口⑤① |①②-③|
③口⑥② |④-⑤⑥|
④⑦口口 |-⑦⑧-|
口⑧口⑨ |⑨-⑩-|
69
口⑧口① |①-②③|
④⑤⑥⑦ |④⑤⑥⑦|
②口口③ |--⑧-|
⑫⑪⑩⑨ |⑨⑩⑪⑫|
70
⑦口⑤① |①-②③|
口②口口 |④-⑤-|
口④③⑥ |⑥-⑦-|
⑧⑨⑩⑪ |⑧⑨⑩⑪|
71
口①③② |①--②|
①③②④ |--③-|
口口⑤口 |--④⑤|
口⑥口⑦ |⑥-⑦-|
72
③①②③ |①--②|
⑥⑦⑧⑨ |--③-|
①④⑤② |--④⑤|
口口口口 |⑥⑦⑧⑨|
73
⑤⑥⑦⑧ |①②③④|
⑬⑭⑮⑯ |⑤⑥⑦⑧|
⑨⑩⑪⑫ |⑨⑩⑪⑫|
①②③④ |⑬⑭⑮⑯|
74
②②③③ |①-②-|
口口口口 |③-④⑤|
口④⑤口
①①口口

口口口口
⑥⑥口⑦
口口口⑦ |--⑥-|
⑧⑧口口 |⑦-⑧-|
75
③②口③ |①--②|
口口②口 |--③-|
口口口口
口口①①

口口口口
⑤⑤口口
口④④口 |-④--|
口口⑥⑥ |⑤-⑥-|
76
口③③口 |①--②|
口口口口 |--③-|
②口口口
①口口口

④口口④
口口⑤⑤
口口口口 |-④--|
⑥⑥口口 |⑤-⑥-|
77
⑥口④⑤ |①---|
⑩⑨⑧⑦ |②③④⑤|
②③①① |--⑥-|
口口口口 |⑦⑧⑨⑩|
78
⑥③③⑥ |①-②-|
⑦⑧⑨⑩ |③-④-|
②②⑤⑤ |⑤-⑥-|
④④①① |⑦⑧⑨⑩|
79
⑤②②④ |①--②|
⑧⑥口口 |--③-|
⑧①⑦③ |④-⑤⑥|
④口口③ |⑦-⑧-|
80
口③③口 |①--②|
口口口口 |--③-|
口②口② |----|
口①①口 |----|
81
口口 |①---|
口口 |----|
口口 |----|
口口 |----|
82
口口口口 |----|
口口口口 |----|
口口口口 |----|
口口口口 |----|
83
口口口口 |----|
口口口口 |----|
口口口口 |----|
口口口口 |----|
84
口口口口 |①---|
口口口口 |----|
口口口口 |----|
口口 |----|

不確定度: 0

最終更新:2015年12月26日 22:15