ススススペースハリネズミ
S-C-U

EXTREME

Level: 10
BPM: 182
Notes: 738

1
口①②口 |----|
口口口口 |----|
口口口口 |----|
口口口口 |--①②|
2
②口口① |①---|
口口口口 |②---|
口④⑥口 |③-④-|
口③⑤口 |⑤-⑥-|
3
口①口口 |--①-|
④口②口 |②-③-|
|----|
口口口口 |--④-|
4
②口口口 |----|
口口口口 |----|
口口口口 |①---|
①口口口 |--②-|
5
口③④口 |----|
②②口口 |--①-|
①①口 |--②-|
口口口口 |--③④|
6
②口口① |①---|
口口口⑥ |②---|
口④⑥口 |③-④-|
口③⑤口 |⑤-⑥-|
7
⑥⑥③③ |--①-|
口②⑤口 |②-③-|
①口口④ |--④-|
口口口口 |⑤-⑥-|
8
口口口口 |----|
口口口口 |①---|
口口口③ |②---|
口口②① |③---|
9
口口口口 |①---|
口口口口 |②---|
口口①④ |③---|
口口③② |④---|
10
口⑫②③ |①-②③|
①⑪⑤⑥ |④-⑤⑥|
④口⑧⑨ |⑦-⑧⑨|
⑦⑩口口 |⑩-⑪⑫|
11
⑦口⑥⑧ |①-②③|
③口⑤④ |④-⑤⑥|
②①口口 |⑦-⑧-|
⑦口口⑧ |----|
12
口④口口 |①-②③|
①⑧③② |④-⑤-|
⑤口⑦⑥ |⑥⑦⑧-|
⑨口⑪⑩ |⑨-⑩⑪|
13
⑦③⑧④ |①-②-|
②口口口 |③④⑤⑥|
⑤①⑥口 |⑦-⑧-|
⑨口⑩口 |⑨-⑩-|
14
口④口口 |①-②③|
①⑧③② |④-⑤-|
⑤口⑦⑥ |⑥⑦⑧-|
⑨口⑪⑩ |⑨-⑩⑪|
15
⑦③⑧④ |①-②-|
②口口口 |③④⑤⑥|
⑤①⑥口 |⑦-⑧-|
⑨口⑩口 |⑨-⑩-|
16
口④口口 |①-②③|
①⑧③② |④-⑤-|
⑤口⑦⑥ |⑥⑦⑧-|
⑨口⑪⑩ |⑨-⑩⑪|
17
②口口口 |①-②-|
口口口口 |③-④⑤|
③①⑤④
口口口口

⑪口⑩口
口⑥口口
口口口口 |⑥-⑦-|
⑦⑨口⑧ |⑧⑨⑩⑪|
18
口④口口 |①-②③|
①⑧③② |④-⑤-|
⑤口⑦⑥ |⑥⑦⑧-|
⑨口⑪⑩ |⑨-⑩⑪|
19
②口口口 |①-②-|
口口口口 |③-④⑤|
③①⑤④
口口口口

⑪口⑩口
口⑥口口
口口口口 |⑥-⑦-|
⑦⑨口⑧ |⑧⑨⑩⑪|
20
口④口口 |①-②③|
①⑧③② |④-⑤-|
⑤口⑦⑥ |⑥⑦⑧-|
⑨口⑪⑩ |⑨-⑩⑪|
21
⑦③⑧④ |①-②-|
②口口口 |③④⑤⑥|
⑤①⑥口 |⑦-⑧-|
⑨口⑩口 |⑨-⑩-|
22
口④口口 |①-②③|
①⑧③② |④-⑤-|
⑤口⑦⑥ |⑥⑦⑧-|
⑨口⑪⑩ |⑨-⑩⑪|
23
⑦③⑧④ |①-②-|
②口口口 |③④⑤⑥|
⑤①⑥口 |⑦-⑧-|
⑨口⑩口 |⑨-⑩-|
24
口④口口 |①-②③|
①⑧③② |④-⑤-|
⑤口⑦⑥ |⑥⑦⑧-|
⑨口⑪⑩ |⑨-⑩⑪|
25
②口口口 |①-②-|
口口口口 |③-④⑤|
③①⑤④
口口口口

⑪口⑩口
口⑥口口
口口口口 |⑥-⑦-|
⑦⑨口⑧ |⑧⑨⑩⑪|
26
口①口口 |①-②-|
口③②口 |--③-|
口①口口
口口②口

口口口⑤
④口口口
口⑥口⑤ |④-⑤-|
④口口口 |--⑥-|
27
⑤②④⑥ |①-②-|
⑨⑩⑪⑫ |③-④-|
⑬⑭⑮⑯ |⑤⑥⑦⑧|
⑦①③⑧ |⑨⑩⑪⑫⑬⑭⑮⑯|
28
④①③⑥ |①-②-|
⑧⑨口口 |③-④-|
口 |⑤-⑥-|
⑤②口口 |⑦-⑧⑨|
29
④②口口 |①-②-|
口口①口 |③-④-|
口口口口
口③口口

口⑨⑧口

⑥口口口 |⑤-⑥-|
⑤口口口 |⑦-⑧⑨|
30
③口口口 |①-②-|
①④口口 |③-④-|
⑤⑥口 |⑤-⑥-|
口②口口

口口口口
口口口口

⑧⑨口口 |⑦-⑧⑨|
31
②口③口 |①-②-|
口⑥口 |③-④-|
④⑤口口 |⑤-⑥-|
口口①口

口口口口

口口口口
⑧⑨口口 |⑦-⑧⑨|
32
②⑥③口 |①-②-|
④口口口 |③-④-|
|⑤-⑥-|
口⑦①口 |⑦-|

口口口口
口口口口
口⑨口口
⑧口口口 |⑧⑨|
33
③⑦②口 |①-②-|
⑤①口 |③-④-|
④⑧口 |⑤-⑥-|
口⑥⑨口 |⑦-⑧⑨|
34
②口口③ |①-②-|
口口口口 |③-④-|
④口口①
口口口口

口口
⑤⑥
口口 |⑤-⑥-|
口口 |⑦---|
35
口口口口 |--①-|
口 |----|



口口口口
口口口口
|②---|
口口口口 |----|
36
口口口口 |----|
口②③口 |----|
口口 |----|
|①-②③|
37
口③④口 |①-②③|
②口口① |④-⑤-|
口⑤⑥口 |⑥-⑦-|
⑦⑧⑨口 |--⑧⑨|
38
②⑥口③ |①--②|
口口⑤① |--③-|
②④口③ |--④-|
口口口① |⑤-⑥-|
39
⑤口④⑥ |①---|
②③口① |--②③|
口口口口 |④-⑤-|
⑦口口① |⑥-⑦-|
40
口②④⑧ |①-②-|
⑥口口口 |③-④-|
口口⑦口 |⑤-⑥-|
口③⑤① |⑦-⑧-|
41
⑤⑩口口 |--①②|
口⑧⑨⑪ |③④⑤-|
③⑥⑦④ |⑥⑦⑧⑨|
①口口② |⑩-⑪-|
42
③口④② |①--②|
①口⑥⑥ |--③-|
③⑤④② |-④--|
①⑤口口 |⑤-⑥-|
43
③①口② |①---|
④①口⑥ |②-③④|
⑤⑧口② |⑤---|
口⑦口⑥ |⑥-⑦⑧|
44
口②②口 |①-②-|
口①①口 |--③-|
③口口③
口口口口

④口口⑤
口⑥⑦口
口口口口 |--④-|
④口口⑤ |⑤-⑥⑦|
45
口③④口 |①-②③|
②口口① |④-⑤-|
口⑤⑥口 |⑥-⑦-|
⑦⑧⑨口 |--⑧⑨|
46
②④口③ |①--②|
口口⑤① |--③-|
②⑥口③ |④-⑤-|
口口⑦① |⑥-⑦-|
47
⑤口④⑥ |①---|
②③口① |--②③|
口口口口 |④-⑤-|
⑦口口① |⑥-⑦-|
48
口②④⑧ |①-②-|
⑥口口口 |③-④-|
口口⑦口 |⑤-⑥-|
口③⑤① |⑦-⑧-|
49
⑤⑩口口 |--①②|
口⑧⑨⑪ |③④⑤-|
③⑥⑦④ |⑥⑦⑧⑨|
①口口② |⑩-⑪-|
50
③⑥口② |①--②|
①④口⑤ |--③-|
③⑥口② |④--⑤|
①④口⑤ |--⑥-|
51
口 |①---|
口 |--②-|
口 |----|
①口①口 |----|
52
口 |----|
口口口口 |----|
②③口口 |----|
口口口口 |①-②③|
53
⑧②⑧③ |①-②-|
⑥口口⑥ |③-④-|
口⑦①口 |⑤-⑥-|
⑤④口⑤ |⑦-⑧-|
54
⑥③⑥③ |--①-|
口口口口 |②-③-|
口⑤②口 |--④-|
口④①口 |⑤-⑥-|
55
口口口口 |--①-|
①口②③ |②-③-|
④口口⑤ |④-⑤-|
⑥口口⑦ |⑥-⑦-|
56
|--①-|
口③③口 |②-③-|
口口②口 |--④-|
口①口口

口口
口口口口
⑥⑦口口
口口口口 |⑤-⑥⑦|
57
口④②口 |①-②-|
⑧⑧口⑥ |③-④-|
口口口口 |⑤-⑥-|
⑦③①⑤ |⑦-⑧-|
58
口②口口 |--①-|
⑥口口⑥ |②-③-|
口⑤③③ |--④-|
口①④口 |⑤-⑥-|
59
①②③④ |①---|
口口口口 |②---|
口口口口 |③---|
口口口口 |④---|
60
口口口口 |①---|
口口①口 |②---|
口②④口 |③---|
③口口口 |④---|
61
口口口口 |①---|
口口口口 |----|
口口口口


口口口口
口口口口
口口口口 |----|
口口口 |---②|
62
口①①口 |①---|
口①①口 |----|
①口口①
口口口口

口口口口
口口口口
②③口口 |----|
口口口口 |--②③|
63
⑤口③② |①-②③|
口④①口 |④-⑤-|
⑧⑨口口 |⑥-⑦-|
⑥口口⑦ |--⑧⑨|
64
③口口③ |①--②|
④口①口 |--③-|
口口口⑤ |--④-|
⑥②②口 |⑤-⑥-|
65
口口③④ |①---|
口②口口 |--②③|
⑦口口⑥ |④-⑤-|
口⑤口① |⑥-⑦-|
66
口③⑤⑩ |①-②-|
②⑦⑥① |③-④-|
口④口口 |⑤⑥⑦⑧|
口⑧⑨口 |⑨-⑩-|
67
⑪⑩口口 |--①②|
⑤⑧⑨口 |③④⑤-|
③⑥⑦④ |⑥⑦⑧⑨|
①口口② |⑩-⑪-|
68
口口②② |①--②|
④④口口 |--③-|
口口⑥⑤ |-④--|
③③①① |⑤-⑥-|
69
口②③④ |①-②③|
口⑥⑤口 |④-⑤⑥|
口①口口
口口口口

口口口口
⑦口口口
口⑫⑪口 |⑦-⑧⑨|
口⑧⑨⑩ |⑩-⑪⑫|
70
④①②⑤ |①-②-|
口③③口 |--③-|
①口口② |--④-|
④口口⑤ |⑤---|
71
口口⑦口 |①-②③|
⑤⑨口⑥ |④-⑤-|
⑧②③④ |⑥-⑦-|
口①①口 |--⑧⑨|
72
口口口口 |①--②|
②口①③ |--③-|
口口口口
②口口③

口⑩⑪口
口⑧⑨口
口⑥⑦口 |④⑤⑥⑦|
口④⑤口 |⑧⑨⑩⑪|
73
口口口 |①---|
①⑦口 |--②③|
①⑤⑥ |④-⑤-|
口②③ |⑥-⑦-|
74
④②③⑩ |①-②-|
口⑨①口 |③-④-|
口⑥⑧口 |⑤⑥⑦⑧|
口⑤⑦ |⑨-⑩-|
75
口⑩口口 |--①②|
⑤⑧⑨口 |③④⑤-|
③⑥⑦④ |⑥⑦⑧⑨|
①⑪⑫② |⑩-⑪⑫|
76
②口口③ |①--②|
口口口口 |--③-|
②口口③
口口口①

口口口口
⑤口口⑥
口④口口 |④--⑤|
⑤口口⑥ |--⑥-|
77
口口口口 |①---|




口口口口
口口口口 |--②-|

口口口口

④口口⑤
口口口口
口口 |-③--|
口 |--④⑤|
78
⑪①②⑫ |①②③④|
⑨③④⑩ |⑤⑥⑦⑧|
口⑤⑥口 |⑨-⑩-|
口⑦⑧口 |⑪-⑫-|
79
口⑩口口 |--①②|
⑤⑧⑨口 |③④⑤-|
③⑥⑦④ |⑥⑦⑧⑨|
①⑪⑫② |⑩-⑪⑫|
80
②口口③ |①--②|
口口口口 |--③-|
②口口③
口口口①

口口口口
口⑤⑤口
口④④口 |④--⑤|
⑥口口⑥ |--⑥-|
81
口②②口 |①-②-|
③口口口 |--③-|
③口口口
口①①口

⑤口口口
口口口④
口口口④ |④---|
⑤口口口 |⑤-|


口口口口
口口口口
|⑥-|
82
口口口口 |----|
口口口口 |----|
口口口口 |----|
口口口口 |----|
83
口口口 |----|
口口口口 |----|
口口口口 |----|
口口口 |--①-|

不確定度: 0

最終更新:2016年04月25日 04:20