Summer Holiday
達見 恵 featured by 佐野宏晃

ADVANCED

Level: 7
BPM: 109
Notes: 411

1
口口口口 |----|
口口口口 |----|
口口口口 |----|
口口口口 |----|
2
④口口④ |----|
③口口③ |-①--|
②口口② |②--③|
口①①口 |--④-|
3
①口口① |----|
②口口② |----|
③口口③ |-①-②|
口④④口 |-③-④|
4
①口口口 |----|
口③口② |----|
口口口口 |--①-|
口④④口 |②③-④|
5
⑥⑥⑥⑥ |--①-|
②⑤②⑤ |②--③|
④①④① |--④-|
③口口③ |⑤--⑥|
6
口口口口 |----|
口①①口 |----|
口①①口 |----|
口口口口 |---①|
7
口口口口 |----|
口口口口 |----|
口口口口 |----|
口口口口 |----|
8
口口⑥⑥ |-①--|
①③②① |②--③|
⑤②③口 |--④-|
④口口④ |⑤⑥--|
9
②口口口 |①②--|
口口③口 |③-④-|
口④①①
口口口口

口口口⑤
口⑥口口
口口口⑦ |⑤-⑥-|
⑧口口口 |⑦-⑧-|
10
口口口⑤ |①--②|
③⑥①口 |--③-|
口②口口 |--④-|
口④口口 |⑤⑥--|
11
⑦口④⑧ |-①-②|
③口口口 |③-④-|
⑤口②⑥ |⑤-⑥-|
口口①口 |⑦-⑧-|
12
口口口口 |①-②③|
口①口口 |----|
口③②口
口口口口

口口口口
口口口口
口口⑦口 |--④-|
④⑥⑤口 |⑤⑥-⑦|
13
⑧③④⑧ |--①-|
①⑦⑥② |②-③④|
口⑤口口 |--⑤-|
口口口口 |⑥⑦-⑧|
14
口④②口 |--①②|
①口口③ |--③④|
⑤口口⑥ |----|
口口口口 |--⑤⑥|
15
口⑨⑧口 |--①-|
③②①口 |②-③④|
⑦口④口 |⑤-⑥-|
口⑤口⑥ |⑦-⑧⑨|
16
③口口③ |--①②|
④①②④ |----|
⑤口口⑤ |--③-|
口口口口 |④-⑤-|
17
⑤口口⑤ |①---|
口④④口 |②---|
口③③口 |③---|
①②②① |④--⑤|
18
⑥口口口 |----|
口③口⑤ |--①②|
④口②口 |③-④-|
口①口口 |⑤-⑥-|
19
③口口③ |①---|
④口①④ |--②-|
⑤口口⑤ |③---|
口②口口 |④--⑤|
20
口口口口 |----|
口①②口 |----|
口③④口 |--①②|
口口口⑤ |③④-⑤|
21
口⑦⑧口 |--①-|
口口⑥口 |②-③-|
①⑤口② |④-⑤-|
③口④口 |⑥-⑦⑧|
22
③口口③ |----|
②④口② |--①-|
口①①口 |②---|
口口口口 |③--④|
23
口⑤⑤口 |①②-③|
口口口口 |-④-⑤|
③口①③
④②口④

⑨口口⑨
⑧⑥⑥⑧
口⑦⑦口 |-⑥-⑦|
口口口口 |-⑧-⑨|
24
口⑤⑤口 |----|
口⑤⑤口 |----|
口③④口 |①-②-|
①口口② |③④-⑤|
25
口口口① |----|
口口口② |①-②-|
口口口口
口口口口

口口口口
⑦口口⑦
口口口③ |③-④-|
口⑤⑥④ |⑤⑥-⑦|
26
口⑥⑥口 |----|
口口①口 |--①-|
口④⑤口 |②-③-|
②口口③ |④⑤-⑥|
27
①口口② |----|
③口口④ |①-②-|
口⑤⑥口 |③-④-|
⑦口口⑦ |⑤⑥-⑦|
28
口口口口 |----|
②⑥口③ |--①-|
口④⑤口 |②-③-|
口口①口 |④⑤-⑥|
29
口口口⑦ |--①-|
⑥口口⑤ |②-③-|
④口口③ |④-⑤-|
②口口① |⑥-⑦-|
30
口口口口 |①--②|
口②②口 |--③-|
口①①口 |----|
④③③⑤ |--④⑤|
31
口⑨⑨⑥ |--①-|
⑦⑤口⑧ |②-③④|
①口④② |⑤-⑥-|
口③口口 |⑦⑧-⑨|
32
口⑦⑦口 |----|
口⑦⑦口 |①--②|
①⑤⑥① |③-④-|
④②③口 |⑤⑥-⑦|
33
①口口口 |----|
②口口口 |①-②-|
口口口口
口口口口

口口口口
⑦口口⑦
③口口口 |③-④-|
④⑥⑤口 |⑤⑥-⑦|
34
口⑥⑥口 |----|
口口①口 |--①-|
口④⑤口 |②-③-|
②口口③ |④⑤-⑥|
35
①口口① |----|
②口口② |①---|
③口口③ |②---|
④口口④ |③--④|
36
口口口口 |-①②-|
口口口口 |----|
口①②口
口口口口

口③口口
口⑦④口
口⑤口口 |--③④|
口口⑥口 |⑤⑥-⑦|
37
口⑥口口 |----|
④口口⑤ |①-②-|
②口口③ |③-④-|
口口口① |⑤-⑥-|
38
③口口③ |①--②|
口②②口 |--③-|
④①①口 |----|
口口口口 |--④-|
39
⑦口口⑦ |①--②|
口口③口 |--③-|
口⑤⑥① |--④-|
口②④口 |⑤⑥-⑦|
40
口④④口 |--①-|
⑤①①⑤ |②-③-|
②⑥⑦② |④-⑤-|
⑧③③⑧ |⑥⑦-⑧|
41
口①口口 |----|
⑥口②⑤ |--①②|
口③口口 |③④--|
口口④口 |--⑤⑥|
42
口①①口 |--①-|
口②②口 |-②--|
口④⑤口 |③-④⑤|
③⑥口③ |---⑥|
43
口④③口 |--①②|
口②①口 |③④-⑤|
口口口口
口口⑤口

口口口口
口⑩⑪口
⑥⑧⑨⑦ |--⑥⑦|
口口口口 |⑧⑨⑩⑪|
44
口①②口 |-①②-|
③口口④ |③④⑤⑥|
⑤口口⑥
口口口口

口口口口
⑬口口⑭
口⑪⑫口 |⑦⑧⑨⑩|
⑦⑨⑩⑧ |⑪⑫⑬⑭|
45
口①①口 |--①-|
口②②口 |-②--|
口④⑤口 |③-④⑤|
③口口③ |----|
46
①口口② |-①②③|
③⑪口④ |④⑤⑥⑦|
⑤⑨⑩⑥ |⑧⑨⑩⑪|
⑦口⑫⑧ |---⑫|
47
⑤口口口 |-①②③|
③⑩⑨④ |④⑤-⑥|
①⑧⑦② |--⑦⑧|
口⑥口⑪ |⑨⑩-⑪|
48
⑤口口⑥ |-①②③|
③口口④ |④⑤⑥⑦|
①口口②
口⑦口口

口⑬口口
口⑪⑫口
⑭⑨⑩⑭ |⑧⑨⑩⑪|
口口⑧口 |⑫⑬-⑭|
49
①口口① |---①|
③口②③ |--②③|
口口口口
口口口口

口口口口
⑦口口⑦
⑤④④⑥ |--④-|
⑤⑦⑦⑥ |⑤⑥-⑦|

不确定度: 0

最終更新:2012年11月06日 21:33