僕ガ壊レル前ニ
ゲーム実況もっと!わくわく荘

BASIC

Level: 3
BPM: 140
Notes: 233

1
口口口口 |----|
口口口口 |----|
口口口口 |----|
口口口口 |----|
2
口口口口 |----|
口口口口 |----|
口口口口 |----|
口口口口 |----|
3
口口口口 |①---|
口①口口 |--②-|
口②口口 |----|
口③口口 |③---|
4
口口口口 |①---|
口口①口 |--②-|
口口②口 |----|
口口③口 |③---|
5
口口口口 |①---|
口口口口 |----|
口①②口 |②---|
口口口口 |----|
6
口口口口 |①---|
①口口① |----|
口②②口 |②---|
口口口口 |----|
7
口口口口 |①---|
①口口① |----|
口口口口 |----|
口口口口 |----|
8
口口口口 |----|
②口口② |----|
口①①口 |①---|
口口口口 |--②-|
9
口口口口 |----|
口口口口 |----|
口口口口 |----|
口口口口 |----|
10
口口口口 |----|
口口口口 |----|
口口口口 |----|
口口口口 |----|
11
口口口口 |①---|
口口④口 |②---|
口③②口 |③---|
口①口口 |④---|
12
口口②口 |①---|
口①口口 |②---|
口口口口 |----|
口口口口 |----|
13
口①口口 |①---|
口③②口 |②---|
口口④口 |③---|
口口口口 |④---|
14
口口口口 |①---|
口口口口 |②---|
④①口④ |③---|
口③②口 |--④-|
15
口口口口 |----|
口口口口 |----|
口口②口 |①---|
口口①口 |②---|
16
口口口口 |①---|
口②①口 |②---|
⑤③口⑤ |③---|
口④口口 |④-⑤-|
17
口口口口 |----|
口口口口 |----|
口②口口 |①---|
口①口口 |②---|
18
口口口口 |①---|
口①②口 |②---|
⑤口③⑤ |③---|
口口④口 |④-⑤-|
19
口口口口 |----|
口口口口 |----|
口口②口 |①---|
口口①口 |②---|
20
口口口口 |①---|
口②①口 |②---|
⑤③口⑤ |③---|
口④口口 |④-⑤-|
21
口口口口 |----|
口口②口 |----|
口①口口 |①---|
口口口口 |②---|
22
口口口口 |①---|
口①口口 |②---|
口口②口 |----|
口口口口 |----|
23
口口口口 |①---|
口口口口 |②---|
口②③口 |③---|
①口口①
24
口口口口 |①---|
口②①口 |②---|
口口口口 |----|
口口口口
25
①②③口 |①---|
口口口口 |②---|
口口口口 |③---|
口口口口
26
口口口口 |①---|
口③②① |②---|
口口口口 |③---|
口口口口
27
口口口口 |----|
口口口口 |①---|
口②①口 |②---|
口口口口
28
口口口口 |①---|
口①②口 |②---|
口口口口 |----|
口口口口
29
口③②① |①---|
口口口口 |②---|
口口口口 |③---|
口口口口
30
①口口口 |①---|
口口口口 |----|
口口口口 |----|
口口口口
31
口口口口 |----|
口口口口 |①---|
口①②口 |②---|
口口口口
32
口口口口 |①---|
口②①口 |②---|
口口口口 |----|
口口口口
33
①②口口 |①---|
口口口口 |②---|
口口口口 |----|
口口口口
34
口口口口 |①---|
口①①口 |----|
口口口口 |----|
口口口口
35
口口口口 |①---|
口口口口 |----|
②口口② |②---|
①口口① |----|
36
①口口① |①---|
②口口② |----|
口口口口 |②---|
口口口口 |----|
37
口口口口 |①---|
口④①口 |②---|
口②③口 |③---|
口口口口 |④---|
38
口口口口 |①---|
口④①口 |②---|
口②③口 |③---|
口口口口 |④---|
39
口口口① |①---|
②口口口 |②---|
口口口③ |③---|
④口口口 |④---|
40
口口口口 |①---|
口①口口 |----|
口口①口 |----|
口口口口 |----|
41
口口口口 |①---|
口①④口 |②---|
口③②口 |③---|
口口口口 |④---|
42
口口口口 |①---|
口①④口 |②---|
口③②口 |③---|
口口口口 |④---|
43
①口口口 |①---|
口口口② |②---|
③口口口 |③---|
口口口④ |④---|
44
口口口口 |①---|
口①①口 |----|
口①①口 |----|
口口口口 |----|
45
口④③口 |①---|
口口口② |②---|
口口口① |③---|
口口口口 |④---|
46
口口口口 |①---|
①口口口 |②---|
②口口口 |③---|
口③④口 |④---|
47
口口口口 |①---|
口③④口 |②---|
口②①口 |③---|
口口口口 |④---|
48
①①①① |①---|
口口口口 |----|
口口口口 |----|
口口口口 |----|
49
口口口口 |①---|
口①④口 |②---|
口③②口 |③---|
口口口口 |④---|
50
口口口口 |①---|
口①④口 |②---|
口③②口 |③---|
口口口口 |④---|
51
①口口① |①---|
口口口口 |----|
口口口口 |----|
口口口口 |----|
52
②②②② |①---|
口①①口 |----|
口①①口 |②---|
口口口口 |----|
53
口口口口 |①---|
口③②① |②---|
口口口口 |③---|
口口口口 |----|
54
口口口口 |①---|
口口口口 |②---|
①②③口 |③---|
口口口口 |----|
55
口口口口 |①---|
口口口口 |②---|
口③②① |③---|
口口口口 |----|
56
口口口口 |①---|
①②③口 |②---|
口口口口 |③---|
口口口口 |----|
57
口口口口 |①---|
口③②① |②---|
口口口口 |③---|
口口口口 |----|
58
口口口口 |①---|
口口口口 |②---|
①②③口 |③---|
口口口口 |----|
59
口口口口 |①---|
口口口口 |②---|
口③②① |③---|
口口口口 |----|
60
口口口口 |①---|
①②③口 |②---|
口口口口 |③---|
口口口口 |----|
61
口口口① |①---|
口口口② |②---|
口口口③ |③---|
口口口④ |④---|
62
口口④口 |①---|
口口③口 |②---|
口口②口 |③---|
口口①口 |④---|
63
口①口口 |①---|
口②口口 |②---|
口③口口 |③---|
口④口口 |④---|
64
④口口口 |①---|
③口口口 |②---|
②口口口 |③---|
①口口口 |④---|
65
口①②口 |①---|
口③④口 |②---|
口口口口 |③---|
口口口口 |④---|
66
口口口口 |①---|
口口口口 |②---|
口①②口 |③---|
口③④口 |④---|
67
口口口口 |①---|
口②②口 |----|
①口口① |②---|
口口口口 |----|
68
①口口① |①---|
②口口② |----|
口口口口 |②---|
口口口口 |----|
69
口口口口 |①---|
口①口口 |--②-|
口②口口 |----|
口③口口 |③---|
70
口口口口 |①---|
口口①口 |--②-|
口口②口 |----|
口口③口 |③---|
71
口口口口 |①---|
口口口口 |----|
口①②口 |②---|
口口口口 |----|
72
口口口口 |①---|
①口口① |----|
口口口口
口口口口

口口口口
③③③③
口②②口 |②---|
口口口口 |--③-|

不確定度: 0

最終更新:2015年12月21日 12:24