僕ガ壊レル前ニ
ゲーム実況もっと!わくわく荘

ADVANCED

Level: 7
BPM: 140
Notes: 507

1
口口口口 |----|
口口口口 |----|
口口口口 |----|
口口口口 |----|
2
口口口口 |----|
口口口口 |----|
口口口口 |----|
口口口口 |----|
3
口口口口 |①--②|
①①③③ |--③-|
口⑤⑥口 |-④--|
④④②② |⑤-⑥-|
4
口口口口 |①--②|
①①③③ |--③-|
口⑤⑥口 |-④--|
④④②② |⑤-⑥-|
5
③口口⑥ |①--②|
口⑤②口 |--③-|
①口口④ |④--⑤|
口口口口 |--⑥-|
6
①口口口 |①-②③|
口口口口 |-④-⑤|
⑤③②④ |⑥---|
口口⑥口 |----|
7
口口口口 |①-②-|
③①①口 |③-④⑤|
口⑤④口
口②口口

口口口口
口口口⑦
口口口口 |--⑥-|
口⑧⑥口 |⑦-⑧-|
8
口口口③ |①-②-|
①⑥⑥口 |③---|
⑤口②⑤ |④--⑤|
口④④口 |--⑥-|
9
口口口④ |--①-|
①⑤口口 |②③-④|
口③②⑥ |--⑤-|
口⑦口口 |⑥-⑦-|
10
口口①口 |①-②-|
②口口口 |③-④-|
口口③口 |----|
④口口口 |----|
11
口口口口 |①-②-|
③①①口 |③-④⑤|
口⑤④口
口②口口

口口口口
口口口⑦
口口口口 |--⑥-|
口⑧⑥口 |⑦-⑧-|
12
口口口③ |①-②-|
①⑥⑥口 |③---|
⑤口②⑤ |④--⑤|
口④④口 |--⑥-|
13
口口口④ |--①-|
①⑤口口 |②③-④|
口③②⑥ |--⑤-|
口⑦口口 |⑥-⑦-|
14
口口①口 |①-②-|
②口口口 |③-④-|
口口③口
④口口口

口⑧⑧口
口⑧⑧⑦
口⑥口口 |⑤-⑥-|
口口口⑤ |⑦-⑧-|
15
口口口口 |----|
口口口口 |----|
口口②口 |--①-|
①口③口 |②-③-|
16
口口口④ |①-②-|
①口③口 |③-④-|
口②口口
口口口口

口⑤口口
⑧⑥口⑧
口口⑦口 |⑤-⑥-|
口口口口 |⑦-⑧-|
17
口口口口 |----|
口口口口 |----|
口②口口 |--①-|
口③口① |②-③-|
18
④口口口 |①-②-|
口③口① |③-④-|
口口②口
口口口口

口口⑤口
⑧口⑥⑧
口⑦口口 |⑤-⑥-|
口口口口 |⑦-⑧-|
19
口口口口 |----|
口口口口 |----|
口口②口 |--①-|
①口③口 |②-③-|
20
口口口④ |①-②-|
①口③口 |③-④-|
口②口口
口口口口

口⑤口口
⑧⑥口⑧
口口⑦口 |⑤-⑥-|
口口口口 |⑦-⑧-|
21
口口口口 |----|
口①口口 |----|
口口口口 |--①-|
口③②口 |②-③-|
22
口口口口 |①-②-|
④口①④ |③-④-|
⑤②③⑤ |--⑤-|
⑥口口⑥ |--⑥-|
23
口口口③ |①---|
口口口口 |②---|
口①②口 |③---|
口口①口
24
口④口口 |①-②-|
①③②口 |③---|
口口口口 |--④-|
口口口口
25
口口①口 |①---|
口口口② |②---|
口口③口 |③---|
口口口口
26
口口口口 |①---|
口①口口 |②---|
②口口口 |③---|
口③口口
27
②口口口 |----|
口口口口 |①---|
口①口口 |②---|
口口口口
28
口口④口 |①-②-|
口②③① |③---|
口口口口 |--④-|
口口口口
29
口①口口 |①---|
②口口口 |②---|
口③口口 |③---|
口口口口
30
口口口口 |①---|
口①①口 |----|
口口口口 |----|
口口口口
31
口口口② |----|
口口口口 |①---|
口口①口 |②---|
口口口口
32
口④口口 |①-②-|
①③②口 |③---|
口口口口 |--④-|
口口口口
33
口口①口 |①---|
口口口② |②---|
口口③口 |③---|
口口口口
34
口口口口 |①---|
口①①口 |②---|
②口口③ |③---|
口口口口
35
口口口口 |①--②|
③口口⑥ |--③-|
口⑤②口 |④--⑤|
①①④④ |--⑥-|
36
①口口① |①--②|
口③③口 |--③-|
②④④② |④---|
口口口口 |----|
37
①口口① |①-②-|
②口口② |③-④⑤|
③口口③
口④⑤口

口口口口
⑧口口⑦
口口口口 |--⑥-|
⑥口口口 |⑦-⑧-|
38
口④口② |①-②-|
口⑧⑤口 |③-④⑤|
口③①口 |--⑥-|
⑦口口⑥ |⑦-⑧-|
39
口⑥⑥口 |--①-|
②⑦⑦⑤ |②-③④|
口口③① |--⑤-|
口④口口 |⑥-⑦-|
40
口③口口 |①--②|
②口口口 |--③-|
口①①口
口口口口

口口口口
口⑥⑤口
口口⑦④ |④--⑤|
口口口口 |⑥-⑦-|
41
①口口① |①-②-|
②口口② |③-④⑤|
③口口③
口④⑤口

口口口口
⑧口口⑦
口口口口 |--⑥-|
⑥口口口 |⑦-⑧-|
42
口④口② |①-②-|
口口⑤⑦ |③-④⑤|
⑥③①口 |----|
口口口口 |⑥-⑦-|
43
口口口口 |①-②-|
①⑤④口 |③-④⑤|
口③口②
口口口口

⑥口口⑥
⑦口口⑦
⑧口口⑧ |--⑥-|
口口口口 |⑦-⑧-|
44
口口口口 |①---|
口口口口 |----|
口口口口 |----|
①口口① |----|
45
④⑧⑤① |①-②-|
⑧④①⑤ |③-④-|
⑥②③⑦ |⑤-⑥-|
②⑥⑦③ |⑦-⑧-|
46
④⑧⑥② |①-②-|
⑦③①⑤ |③-④-|
⑦③①⑤ |⑤-⑥-|
口口口口 |⑦-⑧-|
47
⑧⑧⑦⑦ |①-②-|
⑥⑥⑤⑤ |③-④-|
④④③③ |⑤-⑥-|
②②①① |⑦-⑧-|
48
口口口口 |①---|
口②口口 |----|
①口③① |----|
口①①口 |②-③-|
49
①口口① |①-②-|
②口口② |③-④⑤|
③口口③
口④⑤口

口口口口
⑧口口⑦
口口口口 |--⑥-|
⑥口口口 |⑦-⑧-|
50
口④口② |①-②-|
口口⑤口 |③-④⑤|
⑥③①⑦ |----|
口口口口 |⑥-⑦-|
51
口口口口 |①---|
口口口口 |----|
口①①口 |----|
口①①口 |----|
52
⑤口口⑤ |①-②-|
口口口口 |③-④-|
⑤③④⑤ |⑤---|
口①②口 |----|
53
⑦口口口 |①-②-|
口③⑤④ |③-④⑤|
⑥口②口 |--⑥-|
口①口口 |⑦---|
54
口口口⑥ |①-②-|
④⑤③口 |③-④⑤|
口②口⑦ |--⑥-|
口口①口 |⑦---|
55
口⑧口口 |①-②-|
⑦③⑤④ |③-④⑤|
口⑥②口 |--⑥-|
口①口口 |⑦-⑧-|
56
口口①口 |①-②-|
口④⑤② |③-④⑤|
口口③口
口口口口

口⑥⑦口
⑧口口⑧
口口口口 |-⑥⑦-|
口口口口 |⑧---|
57
⑦口口口 |①-②-|
口③⑤④ |③-④⑤|
⑥口②口 |--⑥-|
口①口口 |⑦---|
58
口口口⑥ |①-②-|
④⑤③口 |③-④⑤|
口②口⑦ |--⑥-|
口口①口 |⑦---|
59
口⑧口口 |①-②-|
⑦③⑤④ |③-④⑤|
口⑥②口 |--⑥-|
口①口口 |⑦-⑧-|
60
口口①口 |①-②-|
⑧④⑤② |③-④⑤|
口⑦③口 |--⑥-|
口口⑥口 |⑦-⑧-|
61
①②③④ |①-②-|
口⑦口⑤ |③-④-|
⑧口⑥口 |⑤-⑥-|
口口口口 |⑦-⑧-|
62
口口口口 |①-②-|
⑧口⑥口 |③-④-|
口⑦口⑤ |⑤-⑥-|
①②③④ |⑦-⑧-|
63
①②③④ |①-②-|
⑧⑦⑥⑤ |③-④-|
口口口口 |⑤-⑥-|
口口口口 |⑦-⑧-|
64
口口口口 |①-②-|
口口口口 |③-④-|
①⑥⑧③ |⑤-⑥-|
⑤②④⑦ |⑦-⑧-|
65
④③②① |①-②-|
⑤口⑦口 |③-④-|
口⑥口⑧ |⑤-⑥-|
口口口口 |⑦-⑧-|
66
口口口口 |①-②-|
口⑥口⑧ |③-④-|
⑤口⑦口 |⑤-⑥-|
④③②① |⑦-⑧-|
67
③口口⑥ |①--②|
口④①口 |--③-|
⑤①④② |④--⑤|
口口口口 |--⑥-|
68
口口口口 |①---|
①口②① |--②③|
口③口口 |④---|
口口④口 |----|
69
口口口口 |①--②|
①①③③ |--③-|
口⑤⑥口 |-④--|
④④②② |⑤-⑥-|
70
口口口口 |①--②|
①①③③ |--③-|
口⑤⑥口 |-④--|
④④②② |⑤-⑥-|
71
③口口⑥ |①--②|
口⑤②口 |--③-|
①口口④ |④--⑤|
口口口口 |--⑥-|
72
①口口口 |①-②③|
⑧⑧⑧⑧ |-④-⑤|
⑤③②④ |⑥--⑦|
⑦⑦⑥⑥ |--⑧-|

不確定度: 0

最終更新:2015年12月21日 12:24