僕ガ壊レル前ニ
ゲーム実況もっと!わくわく荘

EXTREME

Level: 9
BPM: 140
Notes: 772

1
口口口口 |----|
口口口口 |----|
口口口口 |----|
口口口口 |----|
2
口口口口 |----|
口口口口 |----|
口口口口 |----|
口口口口 |----|
3
①口口③ |①--②|
⑥③①⑥ |--③-|
①②④③ |-④--|
④⑤⑤② |⑤-⑥-|
4
①口口③ |①--②|
口③①口 |--③-|
①②口③
口口口②

口口口口
口口口⑤
⑥口④口 |-④--|
④口口⑦ |⑤⑥⑦-|
5
②③⑥⑤ |①--②|
①⑥③④ |--③-|
口②⑤口 |④--⑤|
口①④口 |--⑥-|
6
①口口口 |①-②③|
口口③② |-④-⑤|
④⑥口口 |⑥---|
口口⑤口 |----|
7
口口口⑥ |--①-|
②口④口 |②-③④|
口③⑦⑤ |--⑤-|
口口①口 |⑥-⑦-|
8
③③①口 |①-②-|
口口口口 |③---|
②口口口
口口口口

⑥口口⑥
④口口⑤
⑥④⑤⑥ |④--⑤|
口⑤④口 |--⑥-|
9
口④口口 |--①-|
口口口⑤ |②③-④|
⑦②③口 |--⑤-|
口口⑥① |⑥-⑦-|
10
口口⑤⑥ |①-②-|
口口⑥⑤ |③-④-|
口①③② |--⑤-|
口④④口 |⑥---|
11
口口口口 |①-②-|
③口⑤口 |③-④⑤|
①④口①
①口②①

口口口⑦
口口口口
口口⑧⑥ |--⑥-|
口口口口 |⑦-⑧-|
12
③③①口 |①-②-|
口口口口 |③---|
②口口口
口口口口

⑥口口⑥
④口口⑤
⑥④⑤⑥ |④--⑤|
口⑤④口 |--⑥-|
13
口④口口 |--①-|
口口口口 |②③-④|
口②③口
口口口①

口口口口
口口口⑤
⑥口口口 |--⑤-|
口口口⑦ |⑥-⑦-|
14
口口③④ |①-②-|
①口①口 |③-④-|
④②口口
口③②口

⑤口口口
⑧⑥⑧⑦
口口⑥⑤ |⑤-⑥-|
⑦⑧口⑧ |⑦-⑧-|
15
口口⑥口 |--①-|
口口⑦口 |②-③-|
①②③④ |④-⑤-|
口⑤口口 |⑥-⑦-|
16
①③口④ |①-②-|
①③口② |③-④-|
口口口口
口口口口

⑧口⑤口
口⑧⑥⑦
⑤⑥⑧口 |⑤-⑥-|
口⑦口⑧ |⑦-⑧-|
17
口⑥①口 |--①-|
口⑦②口 |②-③-|
④③口口 |④-⑤-|
口口⑤口 |⑥-⑦-|
18
口口③① |①-②-|
口口③① |③-④-|
④口口口
②口口口

口⑦口⑧
⑤⑥⑧口
口⑧⑥⑦ |⑤-⑥-|
⑧口⑤口 |⑦-⑧-|
19
口口④口 |--①-|
⑤③⑦⑥ |②-③-|
口口②口 |④-⑤-|
口①口口 |⑥-⑦-|
20
口口口口 |①-②-|
口口口口 |③-④-|
①①口②
③③口④

口⑧⑧口
⑥⑤⑤⑥
⑦口口⑦ |⑤-⑥-|
口⑧⑧口 |⑦-⑧-|
21
口口口⑤ |--①-|
口④①口 |②-③-|
口③②口 |④-⑤-|
⑦口口⑥ |⑥-⑦-|
22
①口口口 |①-②-|
⑦⑥②④ |③-④-|
⑥⑦④② |⑤-⑥-|
口③⑤口 |--⑦-|
23
口口③口 |①---|
口口口口 |②---|
口口口口 |③---|
①口②①
24
口口口口 |①-②-|
口①④③ |③---|
口口②口 |--④-|
口口口口
25
口口口① |①---|
口口口② |②---|
口口口③ |③---|
口口口口
26
①口口口 |①---|
②口口口 |②---|
③口口口 |③---|
口口口口
27
口③口口 |①---|
口口口口 |②---|
口①①口 |③---|
口②口口
28
口口口口 |①-②-|
③④①口 |③---|
口②口口 |--④-|
口口口口
29
①口口口 |①---|
③口口③ |②---|
口②②口 |③---|
口口口口
30
口③②口 |①-②③|
⑨⑤④⑧ |④⑤⑥⑦|
⑨⑦⑥⑧ |⑧-⑨-|
①口口①
31
口口③口 |①---|
口口口口 |②---|
口口口口 |③---|
①口②①
32
口口口口 |①-②-|
口口②口 |③---|
口①口口 |--④-|
③④口口
33
口口口口 |①-②-|
口②口口 |③---|
口口①口 |④---|
口④④③
34
口口③口 |①---|
①②口① |②---|
口口口③ |③---|
②口口口
35
③口口⑥ |①--②|
⑥②⑤③ |--③-|
①①④④ |④--⑤|
⑤④①② |--⑥-|
36
①口①口 |①--②|
口②口② |--③-|
③④③④ |④---|
口④口④ |----|
37
①口①口 |①-②-|
口②③④ |③-④⑤|
①口①口
⑤③②口

口口⑦⑦
⑥口口口
口⑥⑧⑧ |--⑥-|
口口口口 |⑦-⑧-|
38
口口口口 |①-②-|
⑤②④② |③-④⑤|
①口口口
口③①③

口⑧口⑧
口⑦口⑦
口⑥口⑥ |--⑥-|
口口口口 |⑦-⑧-|
39
②口①口 |--①-|
口口口口 |②-③④|
④口口③
①口②口

口⑥⑥口
⑦口口⑦
口⑤⑤口 |--⑤-|
口口口口 |⑥-⑦-|
40
口口口口 |①②③④|
口⑧⑦口 |⑤⑥⑦⑧|
④口口③
②⑥⑤①

口⑫口⑨
⑩口口⑪
口⑭口口 |⑨⑩⑪⑫|
口口口⑬ |⑬-⑭-|
41
①口①口 |①-②-|
口②③④ |③-④⑤|
①口①口
⑤③②口

口口⑦⑦
⑥口口口
口⑥⑧⑧ |--⑥-|
口口口口 |⑦-⑧-|
42
口口口口 |①-②-|
⑤②④② |③-④⑤|
①口口口
口③①③

口口口口
口⑧口口
口⑦⑥⑥ |--⑥-|
口口口口 |⑦-⑧-|
43
③③口④ |①-②-|
⑤口①① |③-④⑤|
口口口口
②②口口

口口口口
口⑦⑥口
⑦口⑧⑥ |--⑥-|
口口口⑧ |⑦-⑧-|
44
口⑥⑤① |①-②-|
②④⑦口 |③-④⑤|
⑧①口③ |-⑥⑦-|
①口口⑨ |⑧-⑨-|
45
⑦⑥⑦⑥ |①-②-|
③②③② |③-④-|
④①④① |⑤-⑥-|
⑧⑤⑧⑤ |⑦-⑧-|
46
口口口口 |①-②-|
②④②④ |③-④-|
③①③①
口口口口

⑤口口⑤
口口⑦口
⑧⑥口⑧ |⑤-⑥-|
⑦口口⑥ |⑦-⑧-|
47
②口口③ |①-②-|
口口口口 |③-④-|
口③②口
④①①④

⑧⑤⑥⑧
⑥⑦⑦⑤
口口口口 |⑤-⑥-|
口口口口 |⑦-⑧-|
48
口口口口 |①②③④|
⑦⑧口口 |⑤⑥⑦⑧|
口⑥⑤④
①②③口

口⑫⑪⑩
口口⑨口
口口口口 |⑨⑩⑪⑫|
⑭口口⑬ |⑬-⑭-|
49
口口口④ |①-②-|
①③③① |③-④⑤|
⑤①①口
口②②口

口口口口
⑧口口⑦
口⑥口⑥ |--⑥-|
⑧口口⑦ |⑦-⑧-|
50
口⑧①口 |①②③④|
⑩②⑦⑨ |⑤⑥⑦⑧|
⑫⑥③⑪ |--⑨⑩|
⑭④⑤⑬ |⑪⑫⑬⑭|
51
口口口口 |①---|
口①①口 |----|
口①①口 |----|
口口口口 |----|
52
口⑨口⑨ |①②③④|
⑧口⑨① |⑤⑥⑦⑧|
⑦口⑨② |⑨---|
⑥⑤④③ |----|
53
口口口④ |①-②-|
口③⑤⑦ |③-④⑤|
①①②② |--⑥-|
⑥③口口 |⑦---|
54
口口口④ |①-②-|
⑥③⑤口 |③-④⑤|
①①②② |--⑥-|
口③⑦口 |⑦---|
55
⑧口口④ |①-②-|
口③⑤⑦ |③-④⑤|
①①②② |--⑥-|
⑥③口口 |⑦-⑧-|
56
口口①① |①-②-|
②②口口 |③-④⑤|
④口③③
口⑤口口

口口口口
⑧口口⑧
口口口口 |-⑥⑦-|
口口⑦⑥ |⑧---|
57
口口口④ |①-②-|
口③⑤⑦ |③-④⑤|
①①②② |--⑥-|
⑥③口口 |⑦---|
58
口口口④ |①-②-|
⑥③⑤口 |③-④⑤|
①①②② |--⑥-|
口③⑦口 |⑦---|
59
⑧口口④ |①-②-|
口③⑤⑦ |③-④⑤|
①①②② |--⑥-|
⑥③口口 |⑦-⑧-|
60
口口①① |①-②-|
②②口口 |③-④⑤|
口口③③
④口口⑤

口⑧⑨口
口⑩⑦口
口⑥⑪口 |--⑥⑦|
口口口口 |⑧⑨⑩⑪|
61
⑦口口⑧ |①②③④|
⑤口口⑥ |⑤⑥⑦⑧|
③口口④
①口口②

口⑨⑩口
口⑪⑫口
⑬口⑭口 |⑨⑩⑪⑫|
⑮口⑯口 |⑬⑭⑮⑯|
62
口⑦口⑧ |①②③④|
口⑤口⑥ |⑤⑥⑦⑧|
口③口④
口①口②

⑨口⑩口
⑪口⑫口
口⑬⑭口 |⑨⑩⑪⑫|
口⑮⑯口 |⑬⑭⑮⑯|
63
⑦⑮⑯⑧ |①②③④|
⑤⑬⑭⑥ |⑤⑥⑦⑧|
③⑪⑫④ |⑨⑩⑪⑫|
①⑨⑩② |⑬⑭⑮⑯|
64
①口口口 |①-②③|
⑦⑫⑩④ |④-⑤⑥|
③⑨⑪⑥ |⑦-⑧⑨|
⑤口⑧② |⑩-⑪⑫|
65
⑧口口⑦ |①②③④|
⑥口口⑤ |⑤⑥⑦⑧|
④口口③
②口口①

口⑩⑨口
口⑫⑪口
口⑭口⑬ |⑨⑩⑪⑫|
口⑯口⑮ |⑬⑭⑮⑯|
66
⑧口⑦口 |①②③④|
⑥口⑤口 |⑤⑥⑦⑧|
④口③口
②口①口

口⑩口⑨
口⑫口⑪
口⑭⑬口 |⑨⑩⑪⑫|
口⑯⑮口 |⑬⑭⑮⑯|
67
口口口口 |①--②|
④口⑥④ |--③-|
①口③① |④--⑤|
②⑤口口 |--⑥-|
68
①①①① |①--②|
口③口口 |--③④|
②口④② |⑤-⑥⑦|
⑥⑧⑦⑤ |⑧---|
69
①口口③ |①--②|
⑥③①⑥ |--③-|
①②④③ |-④--|
④⑤⑤② |⑤-⑥-|
70
①口口③ |①--②|
口③①口 |--③-|
①②口③
口口口②

口口口口
口口口⑤
⑥口④口 |-④--|
④口口⑦ |⑤⑥⑦-|
71
②③⑥⑤ |①--②|
①⑥③④ |--③-|
口②⑤口 |④--⑤|
口①④口 |--⑥-|
72
①口口口 |①-②③|
口口③② |-④-⑤|
④口口口
口口⑤口

⑧⑥⑦⑧
⑧⑧⑧⑧
口⑥⑦口 |⑥--⑦|
口口口口 |--⑧-|

不確定度: 0

最終更新:2015年12月21日 12:24