ミライプリズム(collaboration ver.)
ここなつ meets 日向美ビタースイーツ♪

ADVANCED

Level: 7
BPM: 140
Notes: 496

1
口口口口 |----|
口口口口 |----|
口口口口 |----|
口口口口 |----|
2
口口口口 |----|
口口口① |----|
口口口② |--①-|
口口口③ |②-③-|
3
③口①① |①-②-|
④②口口 |③-④-|
口口口口
口口口口

⑦口口口
口口口口
⑤口口口 |⑤-⑥-|
⑥口口口 |--⑦-|
4
口⑦口口 |①-②-|
口①口④ |③-④-|
②口口⑤ |⑤-⑥-|
口③口⑥ |--⑦-|
5
⑥口口⑦ |①-②-|
①口⑤口 |--③-|
口②口④ |④-⑤-|
口口③口 |⑥-⑦-|
6
⑥⑤⑤口 |①-②-|
①口口② |③-④-|
③口口④ |--⑤-|
口口口口 |--⑥-|
7
口口口口 |①---|
口①口口 |--②-|
口口口口
②口口口

口口口口
口口
口口口口 |----|
口口口口 |③---|
8
口口口口 |①---|
口口①口 |--②-|
口口口口
口口口②

口口口口

口口口口 |----|
口口口口 |③---|
9
口①口口 |①---|
③口口 |--②-|
④②口口 |--③-|
⑤口口⑤ |④-⑤-|
10
②口口② |①-②-|
③①①③ |③-④-|
口口口口
口④④口

口口口口
口⑤⑤口
口口口口 |--⑤-|
口口口口 |----|
11
①①①① |①-②-|
口口口④ |③-④-|
口②③口
口口口口

口口口⑦
口口口口
口口口⑤ |⑤-⑥-|
口口口⑥ |--⑦-|
12
⑤口口口 |①---|
④⑥口口 |②-③-|
③①①口 |④-⑤-|
口②②口 |--⑥-|
13
口口⑤口 |①-②-|
口口口④ |--③-|
①口③口 |④-⑤-|
⑦②口⑥ |⑥-⑦-|
14
口⑥口口 |①-②-|
④口口③ |③-④-|
②⑤⑤① |--⑤-|
口口口口 |--⑥-|
15
口口口口 |①---|
①口口口 |--②-|
口口口口
口②口口

口口口口
口口
口口口口 |----|
口口口口 |③---|
16
口口口口 |①---|
口口口① |--②-|
口口口口
口口②口

口口口口

口口口口 |----|
口口口口 |③---|
17
④①口口 |①---|
口口口 |--②-|
口②口口 |--③-|
口口口口 |④---|
18
口口①口 |①-②-|
口②口口 |③-④-|
口口③口
口④口口

⑥⑥⑥⑥
口口口口
口口口口 |--⑤-|
⑤口口⑤ |⑥---|
19
口口口口 |①---|
口①①口
口口口口
口口口口

口口口口
|②-③-|
|----|
②口口② |----|
20
口口口口 |----|
口口 |----|
口口 |----|
口口口口 |--①-|
21
口①①口 |①---|
④口口④ |②---|
口②②口 |③---|
③⑤⑤③ |④-⑤-|
22
①③口② |--①-|
③口口口 |--②-|
口口口④ |--③-|
②口④① |④---|
23
口口②② |①---|
口口口口 |②---|
①①口口
口口口口

口口口口
口口口口
口④⑤口 |③---|
④③③⑤ |④-⑤-|
24
②口口② |--①-|
口③口口 |--②-|
①④口① |--③-|
口⑤口口 |④-⑤-|
25
③口口口 |①---|
②④④① |②---|
②⑤⑤① |③---|
口口口③ |④-⑤-|
26
口口④① |--①-|
②口口④ |--②-|
③口口② |--③-|
①③口口 |④---|
27
⑤口口④ |--①-|
⑥口口口 |②-③④|
口口口口 |--⑤-|
①②③口 |⑥---|
28
④口口⑤ |--①-|
口口口⑥ |②-③④|
口口口口 |--⑤-|
口③②① |⑥---|
29
口⑤口④ |--①-|
口口⑥口 |②-③④|
口口口⑦ |--⑤-|
①②③口 |⑥-⑦-|
30
口口口口 |①---|
口口口口
口口口口
口口

口口⑤口
口口④口 |②-③-|
口口③口 |④-⑤-|
口②口 |----|
31
④口口⑤ |--①-|
口口口⑥ |②-③④|
口口口口 |--⑤-|
口③②① |⑥---|
32
⑤口口④ |--①-|
⑥口口口 |②-③④|
口口口口 |--⑤-|
①②③口 |⑥---|
33
④口⑤口 |--①-|
口⑥口口 |②-③④|
⑦口口口 |--⑤-|
口③②① |⑥-⑦-|
34
口口口口 |①---|
口口口口
口口口口
口口

口口口口
口口口⑤ |②-③-|
口③口④ |--④-|
口②口 |⑤---|
35
①①口口 |①---|
口口口口 |②---|
口口口口
口口②②

口④③口
⑤口口口
⑥口口口 |③-④-|
口口口口 |⑤-⑥-|
36
③口口③ |①-②-|
口口口⑥ |--③-|
口口⑤口 |--④-|
口①②④ |⑤-⑥-|
37
口①①口 |①---|
口口③口 |②--③|
口口口口
②口口口

口口
口④口⑥
口口口⑤ |④-⑤-|
口口口口 |⑥-⑦-|
38
①口⑤ |--①-|
②⑥口④ |②-③-|
③口口口 |--④-|
口口口口 |⑤-⑥-|
39
①口口口 |①---|
③口口口 |②---|
④⑥⑥口 |③-④-|
⑤②②口 |⑤-⑥-|
40
②③口② |--①-|
口①①④ |--②-|
⑤口口口 |--③-|
口口口口 |④-⑤-|
41
③口口③ |①---|
|②-③-|
口④④口 |--④-|
②口①② |--⑤-|
42
口口口口 |----|
口 |①---|
|②---|
口口口口

③③③③
④口口口
口口
口口口口 |③-④-|
43
⑦口口口 |①-②-|
口①②③ |③-④-|
口口口口 |⑤-⑥-|
口⑥⑤④ |--⑦-|
44
口⑦口⑥ |①-②-|
口⑤①口 |③-④-|
②口口④ |⑤-⑥-|
口口③口 |--⑦-|
45
口口口口 |①-②-|
①口口口 |--③-|
口②口口
口口③口

口⑥⑥口
⑦口⑤⑦
口口口④ |④-⑤-|
口口口口 |⑥-⑦-|
46
②口口② |①-②-|
口③③口 |③-④-|
口①①口


口口口口
⑤口口⑤
口⑥口口 |--⑤-|
口口 |--⑥-|
47
口口 |①---|
口口
口口口口
口口口口

口口口口
口口 |--②-|
口口口口
②口口口

口口口口
口口
口口口口 |----|
口口口口 |③---|
48
口口口口 |①---|
口口
口口口口
口口口口

口口口口
口口口 |--②-|
口口口口
口口②口

口口口口

口口口口 |----|
口口口口 |③---|
49
①口口口 |①---|
③口口 |--②-|
④②口口 |--③-|
⑤口口⑤ |④-⑤-|
50
③口口③ |①-②-|
口①①口 |③-④-|

口②②口

口⑤⑤口
口口口口
口口 |--⑤-|
口口口口 |----|
51
①口口① |①-②-|
③口口③ |③-④-|
口②②口
口④④口

口⑦口口
⑦⑤⑤口
口口口口 |⑤-⑥-|
⑥口口⑥ |--⑦-|
52
⑥口①⑥ |①-②-|
口⑦口① |③-④-|
③④④② |⑤-⑥-|
⑤③②⑤ |--⑦-|
53
口口口口 |①-②-|
口口口口 |--③-|
①口③口
口②口口

⑥口⑤⑥
口口口④
⑦口口⑦ |④-⑤-|
口口口口 |⑥-⑦-|
54
口口口口 |①-②-|
口①①口
口口口口
②口口②

口口口口
|③-④-|
口③③口
口口口口

口口口口
口口
口⑥口口 |--⑤-|
口⑤⑤口 |--⑥-|
55
口口口口 |①---|
口口
口口口口
口口口口

口口口口
口口 |--②-|
口口口口
②口口口

口口口口
口口
口口口口 |----|
口口口口 |③---|
56
口口口口 |①---|
口口
口口口口
口口口口

口口口口
口口口 |--②-|
口口口口
口口口②

口口口口

口口口口 |----|
口口口口 |③---|
57
①口口口 |①---|
口③口 |--②-|
②口口口 |----|
口口口口 |③---|
58
口①①口 |①-②-|
④口口④ |③-④-|
口③③口
②口口②

⑥⑥⑥⑥
口口口口
口口口口 |--⑤-|
口⑤⑤口 |⑥---|
59
口口口口 |①---|
口①①口
口口口口
口口口口

口口口口
|②-③-|
|----|
②口口② |----|
60
口口口口 |----|
口口 |----|
口口 |----|
口口口口 |--①-|
61
口①①口 |①---|
④口口④ |②---|
口②②口 |③---|
③⑤⑤③ |④-⑤-|
62
①③口② |--①-|
③口口口 |--②-|
口口口④ |--③-|
②口④① |④---|
63
口口②② |①---|
口口口口 |②---|
①①口口
口口口口

口口口口
口口口口
口④⑤口 |③---|
④③③⑤ |④-⑤-|
64
②口口② |--①-|
口③口口 |--②-|
①④口① |--③-|
口⑤口口 |④-⑤-|
65
③口口口 |①---|
②④④① |②---|
②⑤⑤① |③---|
口口口③ |④-⑤-|
66
口口口① |--①-|
②口口口 |--②-|
口口口②
①口口口

④④④④
口口口口
口口口口 |--③-|
口③③口 |④---|

不確定度: 0

最終更新:2015年12月18日 16:13