フレ降レミライ
北高文芸部女子会

ADVANCED

Level: 5
BPM: 172
Notes: 330

1
口口口口 |----|
口口口口 |----|
口口口口 |----|
口口口口 |----|
2
口口口口 |①---|
口口①口 |----|
口②②口 |②---|
口③③口 |③---|
3
①口口① |①---|
口③②口 |②---|
口口④口 |③---|
口口口口 |④---|
4
④④④④ |①---|
口口口口 |②---|
口①口口 |③---|
口③②口 |④---|
5
口⑤⑤口 |①---|
②口口① |②---|
④口口③ |③---|
口口口口 |④-⑤-|
6
口口口口 |----|
口口①口 |①---|
口口②口 |②---|
口口③口 |③---|
7
①口口① |①---|
口②③口 |②---|
口④口口 |③---|
口口口口 |④---|
8
④口口④ |①---|
口口口口 |②---|
口口①口 |③---|
口②③口 |④---|
9
⑤①①⑤ |①---|
口②②口 |②---|
口③③口 |③---|
口④④口 |④-⑤-|
10
口口口口 |----|
口口②口 |----|
口①口口 |①---|
口口口口 |②---|
11
①口口口 |----|
口③②口 |①---|
口⑤④口 |②-③-|
口口口口 |④-⑤-|
12
口口口③ |--①-|
口口口② |②-③-|
口口口① |----|
口口口口 |----|
13
①②③④ |----|
口口口口 |①-②-|
口口口口 |③-④-|
口口口口 |----|
14
口口口口 |①---|
③口口③ |--②-|
②①①② |③---|
口口口口 |----|
15
口口口③ |①---|
口口②口 |②-③-|
口口口口
口①①口

口口口口
口口口口
口口口口 |----|
口④口口 |--④-|
16
③口口口 |①---|
口②口口 |②-③-|
①口口口
口口口口

口口口口
口口口口
④口口④ |----|
口口口口 |--④-|
17
口①①口 |①---|
口②②口 |②---|
口③③口 |③---|
口④④口 |④---|
18
口⑤⑤口 |--①-|
④口口③ |②-③-|
②口口① |④-⑤-|
口口口口 |----|
19
口口口① |----|
口②③口 |①---|
口④⑤口 |②-③-|
口口口口 |④-⑤-|
20
③口口口 |--①-|
②口口口 |②-③-|
①口口口 |----|
口口口口 |----|
21
③②②③ |----|
口口口口 |①---|
①口口① |②---|
口口口口 |--③-|
22
口口口口 |--①-|
①口口① |--②-|
②口口② |----|
口口口口 |----|
23
口口口口 |①---|
口④④口 |②---|
口①②③ |③---|
口口口口 |--④-|
24
口口口① |--①-|
口口口② |②-③-|
口口口③ |----|
口口口口 |----|
25
⑤口口⑤ |①---|
口①③口 |②---|
口②④口 |③---|
口口口口 |④-⑤-|
26
口口口口 |----|
口①口口 |①---|
口②口口 |②---|
口③口口 |③---|
27
口①①口 |①---|
口②口口 |----|
口口口口 |----|
口口口口 |②---|
28
口口口口 |①---|
口口①口 |----|
口口口口 |----|
口口口口 |----|
29
口④④口 |①---|
口②②口 |②---|
口③③口 |③---|
口①①口 |④---|
30
①口口① |①---|
②口口② |②---|
③口口③ |③---|
④口口④ |④---|
31
口①①口 |①---|
口②口口 |----|
口口口口 |----|
口口口口 |②---|
32
口口口口 |①---|
口口①口 |--②-|
口②②口 |----|
口③③口 |③---|
33
①口口① |①---|
口②口口 |②---|
口③口口 |③---|
口④口口 |④---|
34
口口口口 |①---|
口口③口 |②---|
口口②口 |③---|
口口①口 |----|
35
①口口① |①---|
口口口口 |--②-|
②口口②
口口口口

④④④④
口口口口
口口口口 |----|
口③③口 |③-④-|
36
①口口① |----|
口口口口 |----|
口口口口 |----|
口口口口 |①---|
37
口口口口 |①---|
口④②口 |②---|
口③①口 |③---|
口口口口 |④---|
38
④③②① |①-②-|
口⑦⑥⑤ |③-④-|
口口口口 |--⑤-|
口口口口 |⑥-⑦-|
39
口③③口 |①---|
①口口口 |②---|
口②②口 |③---|
口口口口 |----|
40
口口口口 |①---|
口口口口 |----|
口①①口 |②---|
口②②口 |----|
41
口口口口 |①---|
③口口③ |②---|
②口口② |③---|
①口口① |----|
42
口口口口 |--①-|
口②①口 |②-③-|
口④③口 |④-⑤-|
口⑥⑤口 |⑥---|
43
口口口口 |--①-|
口①②口 |②-③-|
口③④口 |④-⑤-|
口⑤⑥口 |⑥---|
44
①口口① |①---|
②口口② |②---|
③口口③ |③---|
④口口④ |④---|
45
④口口④ |①---|
口②②口 |②---|
口③③口 |③---|
口①①口 |④---|
46
口⑤④③ |--①-|
②口口② |--②-|
①口口① |--③-|
口口口口 |④-⑤-|
47
①口口口 |①---|
口③③口 |②---|
口②②口 |③---|
口口口口 |----|
48
口口口口 |①---|
口口口口 |----|
口①①口 |②---|
口②②口 |----|
49
口口口口 |①---|
③口口③ |②---|
②口口② |③---|
①口口① |----|
50
口口①口 |----|
口②口口 |①---|
口口③口 |②---|
口口口口 |③---|
51
口口口口 |①---|
口口④口 |②---|
口③口口 |③---|
口①②口 |④---|
52
②①口② |①---|
口口口口 |----|
口口口口 |②---|
口口口口 |----|
53
口①①口 |①---|
口②②口 |②---|
口③③口 |③---|
口④④口 |④---|
54
①口口① |①---|
口口口口 |----|
口②②口 |②---|
口口口口 |----|
55
口口口口 |①-②-|
②口口① |③-④-|
④口口③
口口口口

口口口口
⑥口口口
口口口口 |⑤---|
口口口⑤ |--⑥-|
56
口口口口 |①-②-|
口口口① |③-④-|
②口口③ |⑤---|
④⑥⑥⑤ |⑥---|
57
④③③④ |①---|
口②②口 |②---|
口①①口 |③---|
口口口口 |④---|
58
口口口口 |①---|
口口口口 |②---|
④③②① |③---|
口口口口 |④---|
59
口口口口 |--①-|
口口⑤口 |②-③-|
口④③口 |④-⑤-|
口②①口 |----|
60
口口口口 |①---|
口口口口 |②---|
①②③④ |③---|
口口口口 |④---|
61
口口口口 |--①-|
口⑤口口 |②-③-|
口③④口 |④-⑤-|
口①②口 |----|
62
口①①口 |①---|
③口口③ |--②-|
②口口② |----|
口口口口 |③---|
63
口口口口 |--①-|
口③③口 |----|
口②②口 |②---|
①口口① |③---|
64
③③③③ |①---|
口口口口 |--②-|
口②②口 |----|
口①①口 |③---|

不確定度: 0

最終更新:2016年07月27日 22:32