Sweet Rain
Y& Co. feat. Karin

EXTREME

Level: 9
BPM: 155
Notes: 808

1
口口口口 |----|
口口口口 |----|
口口口口 |----|
口口口口 |----|
2
③口口口 |①-②-|
②①①② |--③-|
②①①②
口口口③

口④口口
⑥⑤口口
口口⑤⑥ |--④-|
口口④口 |⑤-⑥-|
3
⑯⑫③① |①②③④|
⑮⑪⑦⑤ |⑤⑥⑦⑧|
⑥⑧⑩⑭ |⑨⑩⑪⑫|
②④⑨⑬ |⑬⑭⑮⑯|
4
口口②① |①-②-|
口口⑥⑤ |③-④-|
③④口口 |⑤-⑥-|
⑦⑧口口 |⑦-⑧-|
5
⑦③口口 |①②③④|
①口口⑥ |⑤⑥⑦⑧|
⑤口口②
口口④⑧

口口口⑫
⑬⑨⑮口
口⑭⑩口 |⑨⑩⑪⑫|
⑪口口口 |⑬⑭-⑮|
6
③口②口 |①-②-|
口口口口 |--③-|
①口口①
口②口③

口④口口
⑥⑤口口
口口⑤⑥ |--④-|
口口④口 |⑤-⑥-|
7
口口①① |①---|
口口②② |②---|
③③口口 |③---|
④④⑤⑤ |④--⑤|
8
②②①① |①---|
口口④④ |②---|
③③口口 |③-④-|
⑤⑤口口 |--⑤-|
9
⑦③口口 |①②③④|
①口口⑥ |⑤⑥⑦⑧|
⑤口口②
口口④⑧

口口⑫⑯
⑮⑪⑩口
口⑨口⑭ |⑨⑩⑪⑫|
⑬口口口 |⑬⑭⑮⑯|
10
③①口⑦ |①---|
口⑦⑥④ |②-③④|
⑥②②⑤ |--⑤-|
口⑤①口 |⑥-⑦-|
11
③口⑥口 |①②③④|
⑦口口④ |⑤⑥⑦⑧|
口⑤②口
①口口⑧

⑭口口⑩
口⑪口口
⑬口口⑫ |⑨⑩⑪⑫|
口⑨口口 |⑬-⑭-|
12
口口口口 |①②-③|
口口①② |④-⑤⑥|
口口⑤⑥
④③口口

口⑦口口
⑨口⑨⑧
口⑦口口 |--⑦-|
口口口⑧ |⑧-⑨-|
13
口口⑥② |①②-③|
口⑦口口 |④⑤⑥⑦|
⑤口口④
①③口口

⑨口口口
口口⑫⑫
口⑭⑧口 |⑧⑨⑩⑪|
⑪⑬口⑩ |⑫-⑬⑭|
14
口口②① |①②-③|
⑤口口⑥ |④-⑤⑥|
③口口④
口口口口

⑨⑦⑨口
口口口口
口⑦口口 |--⑦-|
⑧口⑧口 |⑧-⑨-|
15
口⑦口⑥ |①②③④|
口①④口 |⑤⑥⑦⑧|
③口口②
口⑤口⑧

口口⑬口
⑨口⑭⑩
⑭⑪⑫口 |⑨⑩⑪⑫|
⑬口口口 |⑬-⑭-|
16
④⑨⑥⑨ |①②-③|
⑦③⑦口 |④-⑤⑥|
口⑤口② |--⑦-|
口⑧①⑧ |⑧-⑨-|
17
①口②口 |①--②|
③②口① |--③-|
①口②③
③口口口

⑤口⑥口
口⑥④⑤
⑤④⑥口 |-④--|
口口④口 |⑤-⑥-|
18
口③⑥口 |----|
④口②⑤ |①-②-|
口①口口 |③-④-|
口口口口 |⑤-⑥-|
19
口口口口 |①---|
口①口口 |②-③-|
④口③② |--④-|
⑤①口口 |--⑤-|
20
①口口③ |①-②-|
口④⑤口 |③-④-|
⑥口口⑥ |--⑤-|
口④⑤② |--⑥-|
21
④①口④ |--①-|
口口口口 |②---|
口口②口 |③---|
③口口③ |④---|
22
口口口口 |----|
①③⑤口 |①-②-|
②④⑥口 |③-④-|
①③⑤口 |⑤-⑥-|
23
④③③④ |①-②-|
口⑤⑤① |③-④-|
口口口② |--⑤-|
⑥口口① |--⑥-|
24
⑤口口口 |①-②-|
口⑥④口 |③-④-|
口①⑦③ |--⑤-|
口口②口 |⑥-⑦-|
25
口②口① |①-②-|
①口②口 |--③-|
③②口①
口口口③

④口⑤口
口口口④
口口口⑥ |--④-|
口口口口 |--⑤⑥|
26
③②⑤口 |①---|
④⑥④口 |②-③-|
⑤②③口 |④-⑤-|
①①口⑥ |--⑥-|
27
③口④口 |--①-|
口⑤口① |--②-|
口②②口 |--③-|
口①口口 |④-⑤-|
28
口口口口 |--①-|
口③③口 |----|
口②②① |--②-|
口口口口 |--③-|
29
①③④② |①-②-|
⑤⑥⑥⑤ |③-④-|
⑤⑥⑥⑤ |--⑤-|
②④③① |--⑥-|
30
①③口口 |----|
口口口口 |①-②-|
⑤⑤口口 |③-④-|
口口④② |--⑤-|
31
口④④口 |--①-|
②③③② |--②-|
口口①① |--③-|
口口口口 |--④-|
32
口②口口 |--①-|
①口口① |----|
口口口口 |----|
口口②口 |--②-|
33
②口①③ |①-②-|
④口口⑤ |③-④-|
⑤口口④ |--⑤-|
③①口② |----|
34
①④②口 |①---|
②口①⑤ |②---|
口③③口 |③-④-|
⑥口口口 |⑤-⑥-|
35
④口①口 |①-②-|
②⑥口⑤ |③-④-|
口口③⑧ |⑤-⑥-|
口⑦⑦口 |⑦--⑧|
36
⑥②①口 |①---|
①④③② |②---|
③②口口 |③-④-|
①口口⑤ |⑤-⑥-|
37
⑥口⑤口 |①-②-|
⑦⑦⑦③ |③-④-|
④④①口 |⑤-⑥-|
口②口口 |⑦---|
38
口②口③ |①---|
⑥④口口 |②---|
③⑥⑤② |③-④-|
①①①口 |⑤-⑥-|
39
②③①口 |①-②-|
口口口口 |③-④-|
④口口口
口口口③

⑧口口口
口口口⑤
口⑦口口 |⑤-⑥-|
⑥⑤⑦口 |⑦-⑧-|
40
口①口口 |①---|
③④①口 |②-③-|
口口②⑤ |④---|
口口口口 |⑤---|
41
口③③口 |①-②-|
②口口② |--③-|
口③③口
口口口①

口口口口
口口口⑥
④口口④ |--④-|
口口口⑤ |--⑤⑥|
42
①④②口 |①---|
②口①⑤ |②---|
口③③口 |③-④-|
⑥口口口 |⑤-⑥-|
43
④口①口 |①-②-|
②⑥口⑤ |③-④-|
口口③⑧ |⑤-⑥-|
口⑦⑦口 |⑦--⑧|
44
②③①口 |①-②-|
①口口③ |③---|
口③口口
①口口口

⑦口口口
口⑤④口
④口口口 |④-⑤-|
口口口⑥ |⑥-⑦-|
45
口口口口 |①-②-|
口口口③ |③-④-|
④④①口
口②口口

⑥口⑤口
⑦⑦⑦口
口口⑧口 |⑤-⑥-|
口口口口 |⑦-⑧-|
46
口②口③ |①---|
⑥④口口 |②---|
③⑥⑤② |③-④-|
①①①口 |⑤-⑥-|
47
②③①口 |①-②-|
口口口口 |③-④-|
④口口口
口口口③

⑧口口口
口口口⑤
口⑦口口 |⑤-⑥-|
⑥⑤⑦口 |⑦-⑧-|
48
口①口口 |①---|
③④①口 |②-③-|
口口②⑤ |④---|
口口口口 |⑤---|
49
口③③口 |①-②-|
②⑥⑤② |--③-|
④③③④ |--④-|
口口⑦① |-⑤⑥⑦|
50
⑧口④口 |①②-③|
③口⑦② |-④⑤⑥|
口⑤⑩口 |--⑦⑧|
⑨①口⑥ |-⑨-⑩|
51
口口口③ |-①②③|
①⑤⑧口 |④---|
④口⑥口 |⑤-⑥-|
口口⑦② |--⑦⑧|
52
口口②口 |-①-②|
①⑦口⑤ |③④--|
⑥③⑧口 |⑤-⑥-|
口口口④ |⑦⑧--|
53
③①②④ |①-②-|
口⑤口⑤ |③-④-|
⑤口⑤口 |--⑤-|
④②①③ |----|
54
①④②口 |①---|
②口①口 |②---|
口③③口 |③-④-|
⑤口口口 |--⑤-|
55
②口口口 |--①-|
①③口口 |--②-|
口口口口 |--③-|
口④④口 |④---|
56
⑤②①口 |①---|
①④③② |②---|
③②口⑤ |③-④-|
①口口⑤ |--⑤-|
57
口口口① |--①-|
口口②① |--②-|
②②口口
口①口口

③口⑤⑤
口④口口
口口口口 |--③-|
口口③③ |④-⑤-|
58
口③口口 |①---|
口口②口 |----|
③口①① |--②-|
口口口② |--③-|
59
口口口① |--①-|
口②口③ |--②-|
口口①口 |--③-|
②口③口 |----|
60
口口②口 |①---|
①口口口 |--②-|
口口口② |----|
口①口口 |----|
61
口③②① |①-②-|
②④口③ |--③-|
③口④② |--④-|
①②③口 |----|
62
①口③口 |①-②-|
③口①口 |③-④-|
口口口口
②④④②

口⑥口口
口口口⑦
口⑤⑤口 |⑤-⑥-|
⑧口口口 |⑦-⑧-|
63
④口①口 |①-②-|
②⑥口⑤ |③-④-|
口口③⑧ |⑤-⑥-|
口⑦⑦口 |⑦--⑧|
64
②③①口 |①-②-|
①口口③ |③---|
口③口口
①口口口

⑦口口口
口⑤④口
④口口口 |④-⑤-|
口口口⑥ |⑥-⑦-|
65
口口口口 |①-②-|
口口口③ |③-④-|
④④①口
口②口口

⑥口⑤口
⑦⑦⑦口
口口⑧口 |⑤-⑥-|
口口口口 |⑦-⑧-|
66
口③口⑤ |①-②-|
⑧⑥口② |③-④-|
⑤⑧⑦③ |⑤-⑥-|
①①①④ |⑦-⑧-|
67
②③①口 |①-②-|
口口口口 |③-④-|
④口口口
口口口③

⑧口口口
口口口⑤
口⑦口口 |⑤-⑥-|
⑥⑤⑦口 |⑦-⑧-|
68
口①口口 |①---|
③④①口 |②-③-|
口口②⑤ |④---|
口口口口 |⑤---|
69
③口口③ |①-②-|
②口口② |-③--|
口口口口
口口口①

口口口口
⑧④⑦口
口口⑤⑨ |④⑤-⑥|
口⑥口口 |⑦-⑧⑨|
70
③①口⑦ |①---|
口⑦⑥④ |②-③④|
⑥②②⑤ |--⑤-|
口⑤①口 |⑥-⑦-|
71
③口⑥口 |①②③④|
⑦口口④ |⑤⑥⑦⑧|
口⑤②口
①口口⑧

⑭口口⑩
口⑪口口
⑬口口⑫ |⑨⑩⑪⑫|
口⑨口口 |⑬-⑭-|
72
口口口口 |①②-③|
口口①② |④-⑤⑥|
口口⑤⑥
④③口口

口⑦口口
⑨口⑨⑧
口⑦口口 |--⑦-|
口口口⑧ |⑧-⑨-|
73
口口⑥② |①②-③|
口⑦口口 |④⑤⑥⑦|
⑤口口④
①③口口

⑨口口口
口口⑫⑫
口⑭⑧口 |⑧⑨⑩⑪|
⑪⑬口⑩ |⑫-⑬⑭|
74
口口②① |①②-③|
⑤口口⑥ |④-⑤⑥|
③口口④
口口口口

⑨⑦⑨口
口口口口
口⑦口口 |--⑦-|
⑧口⑧口 |⑧-⑨-|
75
口⑦口⑥ |①②③④|
口①④口 |⑤⑥⑦⑧|
③口口②
口⑤口⑧

口口⑬口
⑨口⑭⑩
⑭⑪⑫口 |⑨⑩⑪⑫|
⑬口口口 |⑬-⑭-|
76
④⑨⑥⑨ |①②-③|
⑦③⑦口 |④-⑤⑥|
口⑤口② |--⑦-|
口⑧①⑧ |⑧-⑨-|
77
①口②口 |①--②|
③②口① |--③-|
①口②③
③口口口

⑤口⑥口
口⑥④⑤
⑤④⑥口 |-④--|
口口④口 |⑤-⑥-|
78
口口口口 |①---|
口口口口 |----|
口口口口 |----|
口①口① |----|


不确定度: 0

タグ:

+ タグ編集
  • タグ:

このサイトはreCAPTCHAによって保護されており、Googleの プライバシーポリシー利用規約 が適用されます。

最終更新:2012年11月10日 14:05