フレ降レミライ
北高文芸部女子会

EXTREME

Level: 8
BPM: 172
Notes: 477

1
口口口口 |----|
口口口口 |----|
口口口口 |----|
口口口口 |----|
2
④口口④ |①---|
①口③口 |--②-|
口口③口 |③---|
口②口口 |④---|
3
⑦①①⑦ |①---|
口②口口 |②-③-|
口⑥③口 |④-⑤-|
口④⑤口 |⑥-⑦-|
4
口口口口 |--①-|
口①②口 |--②-|
①③③② |--③-|
④④④④ |④---|
5
①⑤⑤① |①---|
口口口口 |②---|
②③④口 |③---|
口口口口 |④-⑤-|
6
①口口① |--①-|
口②口口 |②---|
口③口口 |③---|
口④口口 |④---|
7
①⑦⑦① |①---|
口口②口 |②-③-|
口③⑥口 |④-⑤-|
口⑤④口 |⑥-⑦-|
8
口口口口 |--①-|
口②①口 |--②-|
②③③① |--③-|
口④④口 |④---|
9
①⑤⑤② |①---|
①口口② |②---|
③口口④ |③---|
③口口④ |④-⑤-|
10
口口口口 |----|
口①②口 |----|
口口口口 |①---|
口②①口 |②---|
11
口口口口 |①---|
口口口② |②---|
口①①②
口口口口

口⑥口口
③口④口
口⑤口口 |③-④-|
口口口口 |⑤-⑥-|
12
口口口口 |--①-|
口口口① |②-③-|
口口②口 |----|
口③口口 |----|
13
口口口口 |----|
口口④口 |①-②-|
口②口① |③-④-|
口口③口 |----|
14
口①①口 |①---|
②口口口 |--②-|
③②口口 |③---|
口③口口 |----|
15
口口口③ |①---|
口口②口 |②-③-|
口口口口 |----|
口④①① |--④-|
16
③口口口 |①---|
口②口口 |②-③-|
①口口口
口口口口

口口口口
口口口口
④口口④ |----|
口口口口 |--④-|
17
口①①口 |①---|
口②②口 |②---|
口③③口 |③---|
口④④口 |④---|
18
⑤⑤⑤⑤ |--①-|
④口口③ |②-③-|
②口口① |④-⑤-|
口口口口 |----|
19
口口口口 |①---|
②口口口 |②---|
②①①口
口口口口

口口⑥口
口④口③
口口⑤口 |③-④-|
口口口口 |⑤-⑥-|
20
口口口口 |--①-|
①口口口 |②-③-|
口②口口 |----|
口口③口 |----|
21
口③③口 |①---|
④口口口 |②---|
④①①口 |③---|
②口口② |--④-|
22
④口口① |--①-|
口口①② |②-③-|
口口②③ |----|
口口③口 |--④-|
23
口口口① |①---|
口②口口 |②---|
口口口口
口口口口

口口④④
口口口口
口③口口 |③---|
口口口口 |--④-|
24
口口口④ |--①-|
口口①口 |②-③-|
口②口口 |----|
口口③口 |--④-|
25
①口口口 |①-②-|
③⑧⑧② |③-④-|
⑤口口④ |⑤-⑥-|
⑦口口⑥ |⑦-⑧-|
26
①①口口 |----|
②口口口 |①---|
口③口口 |②-③-|
④⑤口口 |④-⑤-|
27
口口口口 |①---|
口①口口 |----|
②②口口 |----|
口口口口 |②---|
28
①①口口 |①---|
口口⑤口 |②---|
口口②④ |③-④-|
口口③口 |⑤---|
29
口①口口 |①-②-|
②口口口 |③---|
口③口口
口口口口

⑦⑦口口
口④口口
⑤口口口 |④-⑤-|
口⑥口口 |⑥-⑦-|
30
口口②① |①---|
口口④③ |②---|
口口①② |③---|
口口③④ |④---|
31
口口①① |①---|
②口④口 |②---|
口③口④ |③---|
口口口口 |④---|
32
口口口口 |①---|
口口口① |--②-|
口口①口
口口②②

口口口口
口口口③
口口口③ |----|
口口口口 |③---|
33
①口①① |①---|
口②口口 |②---|
③口口口 |③---|
口④口口 |④---|
34
口口口口 |①---|
③口口口 |②---|
口②口口 |③---|
①口口口 |----|
35
口①①口 |①---|
口口口口 |--②-|
②口口②
②口口②

⑤⑤⑤⑤
口口口口
口③③口 |--③-|
口④④口 |④-⑤-|
36
口⑤⑤口 |--①-|
口口口口 |②-③-|
②口口① |④---|
④口口③ |⑤---|
37
口口⑦口 |--①-|
口⑥③口 |②-③-|
口②⑤口 |④-⑤-|
口④①口 |⑥-⑦-|
38
①口口口 |①-②-|
①口口② |③-④-|
口③口口
③口④口

口口⑦口
口口⑤⑦
⑥口⑤口 |--⑤-|
口口口口 |⑥-⑦-|
39
①⑤口④ |①-②-|
⑤③④⑥ |③-④-|
口③口② |--⑤-|
⑦⑦②口 |⑥-⑦-|
40
口③②口 |①---|
⑥④④⑤ |②-③-|
③①①② |④---|
口⑥⑤口 |⑤-⑥-|
41
④⑤⑤④ |①---|
口口口口 |②-③-|
②①①② |④---|
③口口③ |⑤---|
42
口口口口 |①-②-|
口①①② |③-④-|
口口③口
口口口④

口⑦口口
口⑦⑦口
口口口⑥ |⑤-⑥-|
口口⑤口 |⑦---|
43
口口⑥口 |--①-|
①⑥⑥口 |②-③-|
⑤②口口 |④-⑤-|
③④口口 |⑥---|
44
口②口口 |①---|
口④口③ |②-③-|
口⑤④口 |④---|
口口①① |⑤---|
45
⑤④⑤④ |--①-|
②③③② |②-③-|
④⑤④⑤ |④---|
①口口① |⑤---|
46
口口口③ |①-②-|
①口③① |--③-|
口口口口
口②②口

口④口口
口④口⑤
口⑥⑥口 |--④-|
口口口口 |⑤-⑥-|
47
口④④口 |①-②-|
口口口口 |③-④-|
②口口③
口②③①

⑤口口口
⑤口⑥⑥
口口口口 |--⑤-|
⑦⑦口口 |⑥-⑦-|
48
口③②口 |①---|
⑥④④⑤ |②-③-|
③①①② |④---|
口⑥⑤口 |⑤-⑥-|
49
③④④③ |①---|
口口口口 |②---|
口①①口 |③---|
②口口② |④---|
50
口口口① |----|
②口③口 |①---|
口口口口 |②---|
口口口口 |③---|
51
口口口口 |①---|
口③口口 |②---|
口④口① |③---|
口口②口 |④---|
52
①①②口 |①---|
口口④口 |②-③-|
③口⑤口 |④---|
口④口口 |⑤---|
53
口①口口 |①---|
①口②② |②---|
口③④口 |③---|
口③口④ |④---|
54
③①①③ |①---|
口口口口 |----|
②口口② |②---|
口口口口 |--③-|
55
口口⑤口 |①-②-|
⑥①②⑤ |③-④-|
④①口口 |⑤---|
口③③口 |--⑥-|
56
口口④② |①-②-|
口口口口 |③-④-|
③口①口
口③①口

口口口⑦
口⑥⑥口
口⑤口口 |⑤---|
⑤口口口 |⑥-⑦-|
57
口④④口 |①---|
①口口口 |②---|
口②口口 |③---|
口口③口 |④---|
58
④④口口 |①---|
口口①② |②---|
口口②① |③---|
③③口口 |④---|
59
口口①口 |--①-|
口②⑤④ |②-③-|
口口③口 |④-⑤-|
口口口口 |----|
60
口口④④ |①---|
②①口口 |②---|
①②口口 |③---|
口口③③ |④---|
61
口①口口 |--①-|
②口⑤口 |②-③-|
口③⑤口 |④-⑤-|
④口口口 |----|
62
口①⑤口 |①---|
①口口② |②-③-|
④③口⑤ |--④-|
口口③口 |⑤---|
63
②④⑤口 |①-②-|
②③③口 |--③-|
口⑤④口 |④---|
口口口① |⑤---|
64
口口口① |①---|
②②口① |--②-|
②口②①
②口②①

口③口③
口口③口
口③口口 |----|
口口口口 |③---|

不確定度: 0

最終更新:2016年07月27日 22:32