メギツネ
BABYMETAL

BASIC

Level: 3
BPM: 142
Notes: 280

1
口口口口 |----|
口口口口 |----|
口口口口 |----|
口口口口 |----|
2
口口口口 |①---|
口①①口 |----|
口②②口 |②---|
口口口口 |----|
3
口口口口 |①---|
口口口口 |②---|
口口口口 |③---|
④③②① |④---|
4
口口口口 |①---|
口①①口 |----|
口②②口 |②---|
口口口口 |----|
5
口口口口 |①---|
口口口口 |②---|
口口口口 |③---|
①②③④ |④---|
6
口口口口 |①---|
口②②口 |----|
口①①口 |②---|
口口口口 |----|
7
口①①口 |①---|
口口口口 |----|
口②②口 |②---|
口口口口 |----|
8
①口口① |①---|
口②口口 |②---|
口③口口 |③---|
口④口口 |④---|
9
口④④口 |①---|
口口③口 |②---|
口口②口 |③---|
口口①口 |④---|
10
①口口口 |①---|
②④④口 |②---|
③口口口 |③---|
口口口口 |④---|
11
口口口① |①---|
口④④② |②---|
口口口③ |③---|
口口口口 |④---|
12
①口口口 |①---|
②④④口 |②---|
③口口口 |③---|
口口口口 |④---|
13
口④④口 |①---|
口③③口 |②---|
口②②口 |③---|
口①①口 |④---|
14
口口口① |①---|
口④④② |②---|
口口口③ |③---|
口口口口 |④---|
15
①口口口 |①---|
②④④口 |②---|
③口口口 |③---|
口口口口 |④---|
16
口口口① |①---|
口④④② |②---|
口口口③ |③---|
口口口口 |④---|
17
口④④口 |①---|
口③③口 |②---|
口②②口 |③---|
口①①口 |④---|
18
口口口口 |①---|
口口口口 |②---|
口②①口 |③---|
口④③口 |④---|
19
口口口口 |①---|
口②①口 |----|
口口口口 |②---|
口口口口 |----|
20
④②②④ |①---|
口口口口 |②---|
③①①③ |③---|
口口口口 |④---|
21
口口口口 |①---|
口①②口 |----|
口口口口 |②---|
口口口口 |----|
22
④②②④ |①---|
口口口口 |②---|
③①①③ |③---|
口口口口 |④---|
23
口口口口 |①---|
口②①口 |----|
口口口口 |②---|
口口口口 |----|
24
④②②④ |①---|
口口口口 |②---|
③①①③ |③---|
口口口口 |④---|
25
口口口口 |①---|
口①②口 |----|
口口口口 |②---|
口口口口 |----|
26
口④④口 |①---|
口①口口 |②---|
口②口口 |③---|
口③口口 |④---|
27
①口口口 |①---|
②④④口 |②---|
③口口口 |③---|
口口口口 |④---|
28
口口口① |①---|
口④④② |②---|
口口口③ |③---|
口口口口 |④---|
29
①口口口 |①---|
②④④口 |②---|
③口口口 |③---|
口口口口 |④---|
30
口④④口 |①---|
口③③口 |②---|
口②②口 |③---|
口①①口 |④---|
31
口口口① |①---|
口④④② |②---|
口口口③ |③---|
口口口口 |④---|
32
①口口口 |①---|
②④④口 |②---|
③口口口 |③---|
口口口口 |④---|
33
口口口① |①---|
口④④② |②---|
口口口③ |③---|
口口口口 |④---|
34
口④④口 |①---|
口③③口 |②---|
口②②口 |③---|
口①①口 |④---|
35
口口②① |①---|
口口口口 |----|
口口口口 |②---|
口口口口 |----|
36
②①口口 |①---|
口口口口 |----|
口口口口 |②---|
口口口口 |----|
37
口口口口 |①---|
口口口口 |----|
①②口口 |②---|
口口口口 |----|
38
口口口口 |①---|
口口口口 |----|
口口①② |②---|
口口口口 |----|
39
口口口口 |①---|
口口②① |----|
口口口口 |②---|
口口口口 |----|
40
口口口口 |①---|
②①口口 |----|
口口口口 |②---|
口口口口 |----|
41
口口口口 |①---|
口口口口 |----|
口①①口 |②---|
口②②口 |----|
42
①口口① |①---|
口口口口 |----|
口口口口 |----|
口口口口 |----|
43
口口口口 |①---|
①④④口 |②---|
②口口口 |③---|
③口口口 |④---|
44
②口口② |①---|
口口口口 |--②-|
口①①口 |----|
口口口口 |----|
45
口口口口 |①---|
口②①口 |②---|
口④③口 |③---|
口口口口 |④---|
46
口口口口 |①---|
口口口口 |②---|
口口口口 |③---|
④②①③ |④---|
47
口口口口 |①---|
口③③口 |②---|
②口口① |③---|
口口口口 |----|
48
①口口口 |①---|
②④④口 |②---|
③口口口 |③---|
口口口口 |④---|
49
口口口① |①---|
口④④② |②---|
口口口③ |③---|
口口口口 |④---|
50
口②①口 |①---|
口④③口 |②---|
口口口口 |③---|
口口口口 |④---|
51
③口口③ |①---|
口口口口 |②---|
口②①口 |③---|
口口口口 |----|
52
②口口② |①---|
口口口口 |--②-|
口①①口 |----|
口口口口 |----|
53
口口口口 |①---|
口①②口 |②---|
口③④口 |③---|
口口口口 |④---|
54
口口口口 |①---|
口口口口 |②---|
口口口口 |③---|
③①②④ |④---|
55
口口口口 |①---|
口③③口 |②---|
①口口② |③---|
口口口口 |----|
56
口口口① |①---|
口④④② |②---|
口口口③ |③---|
口口口口 |④---|
57
①口口口 |①---|
②④④口 |②---|
③口口口 |③---|
口口口口 |④---|
58
口①②口 |①---|
口③④口 |②---|
口口口口 |③---|
口口口口 |④---|
59
口口口口 |①---|
口口口口 |②---|
口①②口 |③---|
口③④口 |④---|
60
①口口① |①---|
口口口口 |----|
口口口口 |----|
口口口口 |----|
61
口口口口 |①---|
口①①口 |----|
口口口口 |----|
口口口口 |----|
62
口口口口 |①---|
口口口口 |----|
口①①口 |----|
口口口口 |----|
63
口口口口 |①---|
口口口③ |----|
口口口② |②---|
口①①口 |③---|
64
口口③① |①---|
口口②口 |----|
口口口口 |②---|
口口口口 |③---|
65
口②口口 |----|
口①口口 |①---|
口口口口 |②---|
口口口口 |----|
66
②口口口 |①---|
①③③口 |②---|
口口口口 |----|
口口口口 |③---|
67
口口口口 |①---|
口口口口 |----|
口①①口 |----|
口口口口 |----|
68
口口口口 |--①-|
口①口口 |----|
口口口口 |----|
口口口口 |----|

不確定度: 0

最終更新:2016年07月27日 22:34