メギツネ
BABYMETAL

ADVANCED

Level: 6
BPM: 142
Notes: 509

1
口口口口 |----|
口口口口 |----|
口口口口 |----|
口口口口 |----|
2
口口口口 |①---|
口①①口 |----|
口②②口 |②---|
口口口口 |----|
3
口⑧口① |①-②-|
②口⑦口 |③-④-|
口⑥口③ |⑤-⑥-|
④口⑤口 |⑦-⑧-|
4
口口口口 |①---|
①口口① |----|
②口口② |②---|
口口口口 |----|
5
①⑤口口 |①-②-|
口口⑥② |③-④-|
③⑦口口 |⑤-⑥-|
口口⑧④ |⑦-⑧-|
6
①口口① |①---|
②口口② |----|
口口口口 |②---|
口口口口 |----|
7
口口口口 |①---|
口口口口 |----|
①口口① |②---|
②口口② |----|
8
①口口① |①---|
口③②口 |②-③-|
口⑤④口 |④-⑤-|
口⑦⑥口 |⑥-⑦-|
9
①⑦⑦① |①-②-|
口口②口 |③-④-|
口③⑥口 |⑤-⑥-|
口⑤④口 |⑦---|
10
⑦⑦⑦⑦ |①-②-|
①口口口 |③-④-|
②口口口 |⑤-⑥-|
③④⑤⑥ |⑦---|
11
⑦⑦⑦⑦ |①-②-|
口口口① |③-④-|
口口口② |⑤-⑥-|
⑥⑤④③ |⑦---|
12
⑦⑦⑦⑦ |①-②-|
①口口口 |③-④-|
②口口口 |⑤-⑥-|
③④⑤⑥ |⑦---|
13
口口⑧④ |①-②-|
③⑦口口 |③-④-|
口口⑥② |⑤-⑥-|
①⑤口口 |⑦-⑧-|
14
⑦⑦⑦⑦ |①-②-|
口口口① |③-④-|
口口口② |⑤-⑥-|
⑥⑤④③ |⑦---|
15
⑦⑦⑦⑦ |①-②-|
①口口口 |③-④-|
②口口口 |⑤-⑥-|
③④⑤⑥ |⑦---|
16
⑦⑦⑦⑦ |①-②-|
口口口① |③-④-|
口口口② |⑤-⑥-|
⑥⑤④③ |⑦---|
17
④⑧口口 |①-②-|
口口⑦③ |③-④-|
②⑥口口 |⑤-⑥-|
口口⑤① |⑦-⑧-|
18
①口口① |①---|
口口口口 |----|
口口口口
口口口口

③口口③
口口口口
口口口口 |②---|
口②②口 |③---|
19
口口口口 |--①-|
口⑤①⑥ |②-③④|
③口②⑦ |-⑤--|
口④口口 |⑥-⑦-|
20
④④⑧⑧ |①-②-|
③③⑦⑦ |③-④-|
口口口口 |⑤-⑥-|
⑤⑥②① |⑦-⑧-|
21
口口口口 |--①-|
⑥①⑤口 |②-③④|
⑦②口③ |-⑤--|
口口④口 |⑥-⑦-|
22
⑧⑧④④ |①-②-|
⑦⑦③③ |③-④-|
口口口口 |⑤-⑥-|
①②⑥⑤ |⑦-⑧-|
23
口口口口 |--①-|
口⑤①⑥ |②-③④|
③口②⑦ |-⑤--|
口④口口 |⑥-⑦-|
24
④④⑧⑧ |①-②-|
③③⑦⑦ |③-④-|
口口口口 |⑤-⑥-|
⑤⑥②① |⑦-⑧-|
25
口口口口 |--①-|
⑥①⑤口 |②-③④|
⑦②口③ |-⑤--|
口口④口 |⑥-⑦-|
26
口口口① |①-②-|
口⑥⑥② |③-④⑤|
口④⑦③ |-⑥-⑦|
口⑧⑤口 |⑧---|
27
⑦⑦⑦⑦ |①-②-|
口口口① |③-④-|
口口口② |⑤-⑥-|
⑥⑤④③ |⑦---|
28
⑦⑦⑦⑦ |①-②-|
①口口口 |③-④-|
②口口口 |⑤-⑥-|
③④⑤⑥ |⑦---|
29
⑦⑦⑦⑦ |①-②-|
口口口① |③-④-|
口口口② |⑤-⑥-|
⑥⑤④③ |⑦---|
30
④⑧口口 |①-②-|
口口⑦③ |③-④-|
②⑥口口 |⑤-⑥-|
口口⑤① |⑦-⑧-|
31
⑦⑦⑦⑦ |①-②-|
①口口口 |③-④-|
②口口口 |⑤-⑥-|
③④⑤⑥ |⑦---|
32
⑦⑦⑦⑦ |①-②-|
口口口① |③-④-|
口口口② |⑤-⑥-|
⑥⑤④③ |⑦---|
33
⑦⑦⑦⑦ |①-②-|
①口口口 |③-④-|
②口口口 |⑤-⑥-|
③④⑤⑥ |⑦---|
34
口口⑧④ |①-②-|
③⑦口口 |③-④-|
口口⑥② |⑤-⑥-|
①⑤口口 |⑦-⑧-|
35
口④口口 |①---|
口口口① |②---|
口口口② |③---|
口口口③ |--④-|
36
口口①口 |①-②-|
口②③口 |③-④-|
⑦④⑤口 |⑤---|
口口⑥口 |⑥-⑦-|
37
口③口口 |①---|
口②①口 |②---|
口口口口 |③---|
口口④口 |--④-|
38
口⑥口口 |①-②-|
口⑤④⑦ |③-④-|
口③②口 |⑤---|
口①口口 |⑥-⑦-|
39
口口口口 |①---|
口④口口 |②---|
口①②口 |③---|
口口③口 |--④-|
40
口口⑥口 |①-②-|
⑦口①口 |③-④-|
口②③口 |⑤---|
口④⑤口 |⑥-⑦-|
41
口口口口 |①---|
口③口口 |--②-|
④②①④ |③---|
口口口口 |--④-|
42
①口口① |①---|
口口口口 |----|
口口口口 |----|
口口口口 |----|
43
口①口口 |①---|
④口②④ |②---|
口③口口 |③---|
口口口口 |④---|
44
②②②② |①---|
口口口口 |--②-|
口口口口 |----|
①①①① |----|
45
⑦口口口 |--①-|
口⑥①口 |②-③-|
⑤口口② |④-⑤-|
口④③口 |⑥-⑦-|
46
口①①口 |①---|
③口⑤② |②-③-|
③⑤口② |--④-|
口④④口 |--⑤-|
47
③口口③ |--①-|
口①口口 |--②-|
②口①② |③---|
口口口口 |----|
48
口①口口 |①-②-|
口口②口 |③-④-|
口③口口
口口④口

⑤⑦⑦⑥
口口口口
⑥口口⑤ |⑤---|
口口口口 |⑥-⑦-|
49
⑤口口④ |--①-|
口①口口 |②-③-|
④口②⑤ |④---|
口③口口 |⑤---|
50
④①①④ |①---|
⑤③③口 |②-③-|
⑤②②口 |--④-|
口口口口 |--⑤-|
51
③③③③ |--①-|
口口口① |--②-|
口口口① |③---|
口②②口 |----|
52
②②②② |①---|
口口口口 |--②-|
口口口口 |----|
①①①① |----|
53
口口口⑦ |--①-|
口①⑥口 |②-③-|
②口口⑤ |④-⑤-|
口③④口 |⑥-⑦-|
54
口①①口 |①---|
②⑤口③ |②-③-|
②口⑤③ |--④-|
口④④口 |--⑤-|
55
③口口③ |--①-|
口口①口 |--②-|
②①口② |③---|
口口口口 |----|
56
口口①口 |①-②-|
口②口口 |③-④-|
口口③口
口④口口

⑥⑦⑦⑥
口口口口
⑤口口⑤ |⑤---|
口口口口 |⑥-⑦-|
57
⑥口口⑥ |--①-|
⑤口①⑤ |②-③-|
④②口④ |④-⑤-|
口口③口 |⑥---|
58
④①①④ |①---|
口③③⑤ |②-③-|
口②②⑤ |--④-|
口口口口 |--⑤-|
59
口口口口 |①--②|
①③②口 |--③-|
①②③口
口口口口

④口口④
⑤口口⑤
⑥口口⑥ |④--⑤|
口口口口 |--⑥-|
60
②②②② |①-②-|
口口口口 |----|
口口口口 |----|
口①①口 |----|
61
口口口口 |①---|
口①①口 |----|
口③②口 |②-③-|
口⑤④口 |④-⑤-|
62
口口口口 |①---|
口①①口 |----|
口口口口 |----|
口口口口 |----|
63
②⑥⑤② |①--②|
口④③口 |----|
口①①口 |③-④-|
口口口口 |⑤-⑥-|
64
②口口② |①---|
口口口口 |--②-|
③①①③ |----|
口口口口 |③---|
65
③①①③ |--①-|
口口口口 |----|
口②②口 |②---|
口口口口 |--③-|
66
口②②口 |----|
口口口口 |①---|
①口口① |--②-|
口口口口 |----|
67
口⑤⑥口 |①--②|
口①②口 |--③-|
口③④口 |-④--|
口口口口 |⑤--⑥|
68
口口口口 |--①-|
口口口① |----|
口口口① |----|
口口口口 |----|

不確定度: 0

最終更新:2016年07月27日 22:34