メギツネ
BABYMETAL

EXTREME

Level: 9
BPM: 142
Notes: 788

1
口口口口 |----|
口口口口 |----|
口口口口 |----|
口口口口 |----|
2
口⑤⑤口 |①②③④|
②口⑧① |-⑤-⑥|
④⑨⑥③ |⑦-⑧⑨|
口⑦⑩口 |⑩---|
3
⑧口⑨① |①②③④|
②⑩⑮⑦ |⑤⑥⑦⑧|
⑥⑭⑪③ |⑨⑩⑪⑫|
④⑫⑬⑤ |⑬⑭⑮-|
4
⑪⑤⑤口 |①②③④|
②口⑧① |-⑤-⑥|
④⑨⑥③ |⑦-⑧⑨|
口⑦⑩口 |⑩-⑪-|
5
口口口① |①-②-|
口口口② |③-④-|
口口口③
口口口④

口⑨⑤口
⑨⑥口口
口口⑦⑩ |⑤⑥⑦⑧|
口⑧⑩口 |⑨-⑩-|
6
①口口① |①---|
②口口② |----|
口口口口 |②---|
口口口口 |----|
7
口口口口 |①---|
口③口口 |----|
①④口① |②-③-|
②⑤口② |④-⑤-|
8
①口口① |①---|
口②⑦口 |②-③-|
口③⑥口 |④-⑤-|
口④⑤口 |⑥-⑦-|
9
①⑭⑭① |①-②③|
⑤⑨⑧② |④⑤⑥⑦|
③⑪⑩⑥ |⑧⑨⑩⑪⑫⑬|
⑦⑬⑫④ |⑭---|
10
⑦⑨⑨⑧ |①②③④|
④口⑤③ |-⑤-⑥|
②⑥口① |⑦-⑧-|
⑧⑨⑨⑦ |⑨---|
11
⑧⑨⑨⑦ |①②③④|
③⑤口④ |-⑤-⑥|
①口⑥② |⑦-⑧-|
⑦⑨⑨⑧ |⑨---|
12
⑦⑨⑨⑧ |①②③④|
④口⑤③ |-⑤-⑥|
②⑥口① |⑦-⑧-|
⑧⑨⑨⑦ |⑨---|
13
②口口口 |①-②-|
④口③① |③-④-|
①③口④
口口口②

⑧⑥⑤⑧
口口口口
口口口口 |⑤-⑥-|
⑦⑤⑥⑦ |⑦-⑧-|
14
⑦⑨⑨⑧ |①②③④|
④口⑤③ |-⑤-⑥|
②⑥口① |⑦-⑧-|
⑧⑨⑨⑦ |⑨---|
15
⑧⑨⑨⑦ |①②③④|
③⑤口④ |-⑤-⑥|
①口⑥② |⑦-⑧-|
⑦⑨⑨⑧ |⑨---|
16
⑦⑨⑨⑧ |①②③④|
④口⑤③ |-⑤-⑥|
②⑥口① |⑦-⑧-|
⑧⑨⑨⑦ |⑨---|
17
②口口口 |①-②-|
④口③① |③-④-|
①③口④
口口口②

⑧⑥⑤⑧
口口口口
口口口口 |⑤-⑥-|
⑦⑤⑥⑦ |⑦-⑧-|
18
⑦⑨⑨⑧ |①②③④|
④⑤⑥③ |-⑤-⑥|
②⑥⑤① |⑦-⑧-|
⑧⑨⑨⑦ |⑨---|
19
口⑦口⑥ |--①②|
⑨④⑧① |③-④⑤|
②口⑤口 |-⑥-⑦|
口口口③ |⑧-⑨-|
20
⑪⑫⑤⑥ |①②③④|
⑫⑪⑥⑤ |⑤-⑥-|
③④⑩⑨ |⑦⑧⑨⑩|
⑦⑧②① |⑪-⑫-|
21
口⑦口⑥ |--①②|
⑨④⑧① |③-④⑤|
口②⑤口 |-⑥-⑦|
口口口③ |⑧-⑨-|
22
⑪⑫⑤⑥ |①②③④|
⑫⑪⑥⑤ |⑤-⑥-|
③④⑩⑨ |⑦⑧⑨⑩|
⑦⑧②① |⑪-⑫-|
23
口⑦口⑥ |--①②|
⑨④⑧① |③-④⑤|
口②⑤口 |-⑥-⑦|
口口口③ |⑧-⑨-|
24
⑪⑫⑤⑥ |①②③④|
⑫⑪⑥⑤ |⑤-⑥-|
②③⑨⑧ |⑦⑧⑨⑩|
①④⑩⑦ |⑪-⑫-|
25
口⑦口⑥ |--①②|
⑨④⑧① |③-④⑤|
口②⑤口 |-⑥-⑦|
口口口③ |⑧-⑨-|
26
口口口⑤ |①-②-|
口口口③ |③-④⑤|
口①②③
口②①④

⑦⑥⑥口
⑦⑦口口
⑦口⑦口 |-⑥--|
⑦⑦口口 |⑦---|
27
①③③② |----|
口口口口 |----|
口口口口 |①-②-|
②③③① |③---|
28
⑧⑨⑨⑦ |①②③④|
③⑤口④ |-⑤-⑥|
①口⑥② |⑦-⑧-|
⑦⑨⑨⑧ |⑨---|
29
⑦⑨⑨⑧ |①②③④|
④口⑤③ |-⑤-⑥|
②⑥口① |⑦-⑧-|
⑧⑨⑨⑦ |⑨---|
30
②口口口 |①-②-|
④口③① |③-④-|
①③口④
口口口②

⑧⑥⑤⑧
口口口口
口口口口 |⑤-⑥-|
⑦⑤⑥⑦ |⑦-⑧-|
31
⑦⑨⑨⑧ |①②③④|
④口⑤③ |-⑤-⑥|
②⑥口① |⑦-⑧-|
⑧⑨⑨⑦ |⑨---|
32
⑧⑨⑨⑦ |①②③④|
③⑤口④ |-⑤-⑥|
①口⑥② |⑦-⑧-|
⑦⑨⑨⑧ |⑨---|
33
⑦⑨⑨⑧ |①②③④|
④口⑤③ |-⑤-⑥|
②⑥口① |⑦-⑧-|
⑧⑨⑨⑦ |⑨---|
34
②口口口 |①-②-|
④口③① |③-④-|
①③口④
口口口②

口⑥⑤口
口口口口
⑧口⑧口 |⑤-⑥-|
⑦⑤⑥⑦ |⑦-⑧-|
35
②口口口 |①---|
①①③口 |②---|
④②口口 |③---|
口口口③ |--④-|
36
口口口口 |①-②-|
口口口③ |③-④-|
口口②④
口①口口

口口口口
口口口口
口口⑦口 |⑤---|
口口⑥⑤ |⑥-⑦-|
37
口口口③ |①---|
口②①④ |②---|
口口③口 |③---|
②口口口 |--④-|
38
⑤口①口 |①-②-|
④②口口 |③-④-|
③口⑦口 |⑤---|
口口⑥口 |⑥-⑦-|
39
口②口口 |①---|
口口①口 |②---|
②口口口
口口口口

口口口口
口口口③
④口口口 |③---|
口口③口 |--④-|
40
⑥口口口 |①-②-|
⑦口口③ |③-④-|
口口②④ |⑤---|
口①口⑤ |⑥-⑦-|
41
口口④④ |①---|
口③②口 |--②-|
①②③口 |③---|
④④口口 |--④-|
42
①①口口 |①---|
口口口口 |----|
口口口口 |----|
口口①① |----|
43
口⑦⑦口 |①②③-|
⑧①④⑧ |④⑤⑥-|
⑧②⑤⑧ |⑦---|
口③⑥口 |⑧---|
44
②②②② |①---|
口口口口 |--②-|
口口口口
①①①①

口口口口
③④口⑤
口口口⑥ |③-④-|
口口口⑦ |⑤⑥⑦-|
45
③③②口 |①-②-|
④口②口 |③-④-|
④①①口
口口口口

口口口口
口⑧⑦⑦
口⑧口⑥ |⑤-⑥-|
口⑤⑤⑥ |⑦-⑧-|
46
①口③口 |①---|
口口口③ |②-③-|
口口①口
口②②口

口④口口
④⑤口口
⑤口⑤口 |--④-|
口口口口 |--⑤-|
47
④③④③ |--①-|
②口②口 |--②-|
③①③① |③---|
口②①② |④---|
48
口③④口 |①-②-|
口①②口 |③-④-|
②口口①
口④③口

⑤口口⑥
⑦口口⑦
⑦口口⑦ |⑤---|
⑥口口⑤ |⑥-⑦-|
49
⑤②①④ |--①-|
口③③口 |②-③-|
口①②口 |④---|
④口口⑤ |⑤---|
50
口④④口 |①-②-|
口②口口 |③-④-|
口③口①
③口①口

口口口⑦
⑤口口口
⑧口口⑥ |⑤-⑥-|
⑧口口⑥ |⑦-⑧-|
51
口⑧⑦口 |①②③④|
口⑥⑤口 |⑤⑥⑦⑧|
口④③口
口②①口

⑩口口⑨
⑩口口⑨
⑫口⑬⑪ |⑨⑩-⑪|
⑫⑭口⑪ |⑫-⑬⑭|
52
②②②② |①---|
口①①口 |--②-|
口口口口
口口口口

口口口口
⑤口④口
⑥口口口 |③-④-|
⑦口③口 |⑤⑥⑦-|
53
口②③③ |①-②-|
口②口④ |③-④-|
口①①④
口口口口

口口口口
⑦⑦⑧口
⑥口⑧口 |⑤-⑥-|
⑥⑤⑤口 |⑦-⑧-|
54
②④口① |①-②-|
④口口口 |③-④-|
口①口口
口③③口

口口口⑧
口口⑧口
口口⑥⑤ |⑤-⑥-|
⑦口口⑥ |⑦-⑧-|
55
口口口口 |①-②-|
③口口口 |③④⑤-|
④①口口
⑤②②口

口⑦⑥⑥
口⑨⑧口
口⑪⑩口 |⑥⑦⑧⑨|
口⑬⑫口 |⑩⑪⑫⑬|
56
口③②口 |①-②-|
③④④① |③-④-|
②口口①
口口口口

⑦口口⑤
口口口口
⑧⑥⑥口 |⑤-⑥-|
⑤⑧口⑦ |⑦-⑧-|
57
口②③口 |①-②-|
口④①③ |③-④-|
口口④②
口口口口

⑦口口⑤
口口⑥口
口⑥口口 |⑤-⑥-|
⑤口⑧⑦ |⑦-⑧-|
58
口④①口 |①-②-|
④②口① |③-④-|
③口口口
口③口口

⑧口口口
口⑧口口
口⑦⑤口 |⑤-⑥-|
⑥口口⑥ |⑦-⑧-|
59
④口口① |①--②|
②④①⑤ |--③-|
②⑥③⑤ |④--⑤|
⑥口口③ |--⑥-|
60
口②口② |①-②-|
①口①口 |----|
②口②口 |----|
口①口① |----|
61
口口口口 |①---|
口①①口 |----|
口口口口 |②-③-|
⑤③②④ |④-⑤-|
62
口口口口 |①---|
口①①口 |----|
口口口口 |----|
口口口口 |----|
63
口口口口 |①-②③|
⑥③③⑤ |-④⑤⑥|
口①①口
口④②口

口⑫⑪口
口⑭⑬口
⑧口口⑦ |⑦⑧⑨⑩|
⑩口口⑨ |⑪⑫⑬⑭|
64
口口口口 |①②③④|
⑥口口⑤ |-⑤⑥-|
口②①口
口④③口

口⑦⑦口
口口口口
口⑨⑧口 |⑦---|
口⑪⑩口 |⑧⑨⑩⑪|
65
口③③口 |-①②-|
②口口① |③---|
口口口口
口口口口

口口口口
口⑨⑧⑦
口④⑤⑥ |④⑤⑥-|
口口口口 |⑦⑧⑨-|
66
口口口口 |①②-③|
口口口口 |④-⑤⑥|
①③⑤口
②④⑥口

口口口⑦
⑧口口⑨
⑩口口⑪ |-⑦⑧⑨|
⑫口口⑬ |⑩⑪⑫⑬|
67
口①口口 |①--②|
口⑥②口 |--③-|
⑤③口口 |-④--|
口口④口 |⑤--⑥|
68
口口口口 |--①-|
口口口口 |----|
口口口① |----|
口口口① |----|

不確定度: 0

最終更新:2016年07月27日 22:33