かくしん的☆めたまるふぉ~ぜっ!
土間うまる(CV:田中あいみ)

BASIC

Level: 3
BPM: 139-199
Notes: 158

BPM: 139
1
口口口口 |----|
口口口口 |----|
口口口口 |----|
口口口口 |----|
2
口口口口 |①---|
口口口口 |②---|
①②④③ |③---|
口口口口 |④---|
3
③口口③ |①---|
口①②口 |②---|
口口口口 |③---|
④口口④ |④---|
4
口口口口 |①---|
口口口口 |②---|
①②④③ |③---|
口口口口 |④---|
5
③口口③ |①---|
口①②口 |②---|
口口口口 |③---|
④口口④ |④---|
6
口口口口 |①---|
口口口口 |----|
口②②口 |②---|
口①①口 |----|
7
口②②口 |①---|
口①①口 |----|
口口口口 |②---|
口口口口 |----|
8
①口口② |①---|
口口口口 |----|
口口口口 |②---|
口口口口 |----|
9
口口口口 |①---|
①口口② |----|
口口口口 |②---|
口口口口 |----|
10
口①口口 |①---|
口②口口 |----|
口口口口 |②---|
口口口口 |----|
11
口口口口 |①---|
口口口口 |----|
口①口口 |②---|
口②口口 |----|
12
口口口口 |①---|
口口口口 |----|
口口②口 |②---|
口口①口 |----|
13
口口口口 |①---|
①②口口 |----|
口口口口 |②---|
口口口口 |----|
14
口口口口 |①---|
口口①口 |----|
口②②口 |②---|
口③③口 |③---|
15
口口口口 |①---|
口口②① |----|
口口口口 |②---|
口口口口 |----|
16
口口口口 |①---|
口①口口 |----|
口②②口 |②---|
口口口口 |----|
17
口口口口 |①---|
①口口口 |----|
口口口口 |----|
口口口口 |----|
18
口口口口 |①---|
口①口口 |----|
口口口口 |----|
口口口口 |----|
19
口口口口 |①---|
口口①口 |----|
口口口口 |----|
口口口口 |----|
20
口口口口 |①---|
口口口① |----|
口口口口 |----|
口口口口 |----|
21
口口口口 |①---|
口口口口 |----|
口口口① |----|
口口口口 |----|
22
口口口口 |①---|
口口口口 |----|
口口①口 |----|
口口口口 |----|
23
口口口口 |①---|
口口口口 |----|
口①口口 |----|
口口口口 |----|
24
口口口口 |①---|
口口口口 |----|
①口口口 |----|
口口口口 |----|

BPM: 199
25
口①口口 |①---|
口口口口 |----|
口口口口 |----|
口口口口
26
口口口口 |①---|
口口口口 |----|
口①口口 |----|
口口口口
27
口口①口 |①---|
口口口口 |----|
口口口口 |----|
口口口口
28
口口口口 |①---|
口口口口 |----|
口口①口 |----|
口口口口
29
口口口口 |①---|
口①口口 |----|
口口口口 |----|
口口口口
30
口口口口 |①---|
口口口口 |----|
口口口口 |----|
口①口口
31
口口口口 |①---|
口口①口 |----|
口口口口 |----|
口口口口
32
口口口口 |①---|
口口口口 |----|
口口口口 |----|
口口①口
33
口口口口 |①---|
口口口口 |----|
①口口口 |----|
口口口口
34
口口口口 |①---|
口口口口 |----|
口口①口 |----|
口口口口
35
口口口口 |①---|
口①口口 |----|
口口口口 |----|
口口口口

BPM: 139
36
口口口口 |①---|
口口口① |----|
口口口口
口口口口
37
口①口口 |①---|
口口②口 |②---|
口③口口 |③---|
口口④口 |④---|
38
口口④口 |①---|
口③口口 |②---|
口口②口 |③---|
口①口口 |④---|
39
口①口口 |①---|
口口②口 |②---|
口③口口 |③---|
口口④口 |④---|
40
口口口口 |①---|
②口口② |----|
①口口① |②---|
口口口口 |----|
41
①②③④ |①---|
口口口口 |②---|
口口口口 |③---|
口口口口 |④---|
42
口口口口 |①---|
④③②① |②---|
口口口口 |③---|
口口口口 |④---|
43
口口口口 |①---|
口口口口 |----|
口②①口 |②---|
口①②口 |----|
44
④口口口 |①---|
口口口③ |②---|
②口口口 |③---|
口口口① |④---|
45
口口①口 |①---|
口口②口 |②---|
口口③口 |③---|
口口④口 |④---|
46
口④口口 |①---|
口③口口 |②---|
口②口口 |③---|
口①口口 |④---|
47
口口口口 |①---|
口口口口 |----|
口②①口 |②---|
口①②口 |----|
48
④口口口 |①---|
口口口③ |②---|
②口口口 |③---|
口口口① |④---|
49
③④②① |①---|
口口口口 |②---|
口口口口 |③---|
口口口口 |④---|
50
口口口口 |①---|
③④②① |②---|
口口口口 |③---|
口口口口 |④---|
51
口口口口 |①---|
口口口口 |----|
口①①口 |②---|
口②②口 |----|
52
口口口口 |①---|
口口口口 |②---|
①②④③ |③---|
口口口口 |④---|
53
③口口③ |①---|
口①②口 |②---|
口口口口 |③---|
④口口④ |④---|
54
口口口口 |①---|
口口口口 |②---|
①②④③ |③---|
口口口口 |④---|
55
③口口③ |①---|
口①②口 |②---|
口口口口 |③---|
④口口④ |④---|
56
口口口口 |①---|
口①①口 |----|
口①①口 |----|
口口口口 |----|
57
口口口口 |①---|
口②②口 |----|
口①①口 |②---|
口口口口 |----|

不確定度: 0

最終更新:2016年06月17日 17:59