かくしん的☆めたまるふぉ~ぜっ!
土間うまる(CV:田中あいみ)

ADVANCED

Level: 7
BPM: 139-199
Notes: 364

BPM: 139
1
口口口口 |----|
口口口口 |----|
口口口口 |----|
口口口口 |----|
2
①口口④ |①-②-|
②口口⑤ |③---|
③口口⑥ |④-⑤-|
口口口口 |⑥---|
3
口⑤⑤口 |①-②-|
口⑥⑥口 |③-④-|
口⑦⑦口 |⑤-⑥-|
①③④② |⑦---|
4
①口口④ |①-②-|
②口口⑤ |③---|
③口口⑥ |④-⑤-|
口口口口 |⑥---|
5
口⑤⑤口 |①-②-|
口⑥⑥口 |③-④-|
口⑦⑦口 |⑤-⑥-|
①③④② |⑦---|
6
①口口② |①---|
①口口② |----|
口口口口 |②---|
口口口口 |----|
7
③口口口 |①---|
口口口口 |----|
①口口② |②---|
①口口② |--③-|
8
口口口② |①---|
④①③口 |--②-|
口口口口 |③---|
口口口口 |--④-|
9
口⑥⑦口 |①-②-|
口口口⑤ |③-④-|
口口口口 |⑤--⑥|
②④③① |⑦---|
10
①口口口 |①--②|
口②⑤④ |--③-|
口⑥③口 |④-⑤-|
口⑦口口 |⑥-⑦-|
11
①口口② |①--②|
口③口口 |--③-|
口口口口
口口口口

⑤口口口
口口口口
口口口口 |④---|
口④④口 |--⑤-|
12
口④⑤③ |①-②-|
②口口① |③-④-|
口⑥⑥口 |⑤---|
口口口口 |--⑥-|
13
①口口② |①-②-|
③口口④ |③-④-|
⑤口口⑥ |⑤-⑥-|
⑦口口⑧ |⑦-⑧-|
14
口①②口 |①-②-|
口③④口 |③-④-|
口⑤⑥口 |⑤-⑥-|
口⑦⑧口 |⑦-⑧-|
15
①口口② |①-②-|
③口口④ |③-④-|
⑤口口⑥ |⑤-⑥-|
⑦口口⑧ |⑦-⑧-|
16
口①①口 |①--②|
③口口③ |--③-|
口④④口 |④---|
口②②口 |----|
17
①口口⑤ |①--②|
口口②口 |--③-|
口口口③ |④---|
口口口④ |--⑤-|
18
口口口口 |①--②|
口口⑤① |--③-|
口⑥②口 |④---|
④③口口 |--⑤⑥|
19
口④③口 |①--②|
口⑥⑤口 |--③-|
②口⑦口 |④-⑤-|
口口①口 |⑥-⑦-|
20
⑤口口口 |①--②|
③④口② |--③-|
口①口口 |④---|
口口口口 |--⑤-|
21
口口口口 |①--②|
①⑥口口 |--③-|
口②⑤口 |④---|
口口③④ |--⑤⑥|
22
②口①口 |①--②|
口口⑤口 |--③-|
③⑥口口 |④---|
④口口口 |--⑤⑥|
23
口④③口 |①--②|
口⑥⑤口 |--③-|
②口⑦口 |④-⑤-|
口口①口 |⑥-⑦-|
24
②口口② |①---|
④口口④ |②---|
④①口④ |③---|
③口口③ |④---|

BPM: 199
25
口①口口 |①---|
口口口口 |----|
口口口口 |----|
口口口口
26
口口口口 |①---|
口①口口 |----|
口口口口 |----|
口口口口
27
口口口口 |①---|
口口口口 |----|
口口①口 |----|
口口口口
28
口口口口 |①---|
口口口口 |----|
口口口口 |----|
口口①口
29
口口口口 |①---|
口口口口 |----|
①口口口 |----|
口口口口
30
口口口口 |①---|
口口口口 |----|
口①口口 |----|
口口口口
31
口口口口 |①---|
口口①口 |----|
口口口口 |----|
口口口口
32
口口口口 |①---|
口口口① |----|
口口口口 |----|
口口口口
33
口口口口 |①---|
口口口口 |----|
①口口口 |----|
口口口口
34
口口口口 |①---|
口口口口 |----|
口口口① |----|
口口口口
35
口①口口 |①---|
口口②口 |②---|
口③口口 |③---|
口口口口

BPM: 139
36
②③③② |①---|
口口口口 |②-③-|
口口口口
①①①①
37
口口口口 |①-②-|
口口口口 |③-④-|
①③⑤⑦ |⑤-⑥-|
②④⑥⑧ |⑦-⑧-|
38
①④④① |①--②|
②④④② |--③-|
口③③口 |④---|
口口⑥⑤ |⑤-⑥-|
39
口口口口 |①-②-|
④⑤⑥⑦ |③-④-|
③口口⑧ |⑤-⑥-|
②①口口 |⑦-⑧-|
40
③口口③ |①-②-|
④口口④ |③-④-|
口②①口
口口口口

口⑥⑥口
口⑦⑦口
口⑧⑧口 |⑤-⑥-|
⑤⑤⑤⑤ |⑦-⑧-|
41
①口口② |①--②|
①口口② |--③-|
③口口口
③口口口

⑦⑦⑦口
口口口口
口④⑤⑥ |④-⑤-|
口④⑤⑥ |⑥-⑦-|
42
⑤口口口 |①--②|
⑤①①① |--③-|
②④④③ |④---|
②④④③ |--⑤-|
43
④口口① |①---|
口口口① |--②-|
②口口③ |③---|
②口口③ |--④-|
44
口④⑤② |①-②-|
①口口③ |③-④-|
口口口口 |⑤--⑥|
⑥口口⑦ |⑦---|
45
①口口④ |①--②|
口口⑤口 |--③-|
口⑥②口 |④-⑤-|
⑦口口③ |⑥-⑦-|
46
口口③口 |①---②-|
①口口② |--③-|
口口口口
口口口口

⑤口口口
⑤口口口
口口口口 |④---|
口④④口 |--⑤-|
47
④口口① |①---|
口口口① |--②-|
②口口③ |③---|
②口口③ |--④-|
48
口口②口 |①-②-|
口①口③ |③-④-|
④口口⑥ |⑤---|
口⑤口⑦ |⑥-⑦-|
49
①口口④ |①-②-|
②口口⑤ |③---|
③口口⑥ |④-⑤-|
口口口口 |⑥---|
50
口①②口 |①②③④|
口③④口 |⑤-⑥-|
口⑤口口
口口⑥口

⑦⑧⑨口
口口口口
口⑩口口 |⑦-⑧-|
口口口口 |⑨-⑩-|
51
口④口口 |①-②-|
口②③口 |③-④-|
口口①口
口口口口

口口口口
口口口口
口⑤⑦口 |⑤-⑥-|
⑥口口⑧ |⑦-⑧-|
52
①口口④ |①-②-|
②口口⑤ |③---|
③口口⑥ |④-⑤-|
口口口口 |⑥---|
53
口⑤⑤口 |①-②-|
口⑥⑥口 |③-④-|
口⑦⑦口 |⑤-⑥-|
①③④② |⑦---|
54
①口口④ |①-②-|
②口口⑤ |③---|
③口口⑥ |④-⑤-|
口口口口 |⑥---|
55
口⑤⑤口 |①-②-|
口⑥⑥口 |③-④-|
口⑦⑦口 |⑤-⑥-|
①③④② |⑦---|
56
口口口口 |①---|
①口口① |----|
①口口① |----|
口口口口 |----|
57
①②②① |①--②|
⑤④④⑤ |--③-|
⑤④④⑤ |④---|
口③③口 |⑤---|

不確定度: 0

最終更新:2016年06月17日 17:59