かくしん的☆めたまるふぉ~ぜっ!
土間うまる(CV:田中あいみ)

EXTREME

Level: 9
BPM: 139-199
Notes: 551

BPM: 139
1
口口口口 |----|
口口口口 |----|
口口口口 |----|
口口口口 |----|
2
④⑧④⑧ |①-②-|
⑧④⑧④ |③-④-|
口⑦③口 |⑤-⑥-|
⑤②⑥① |⑦-⑧-|
3
口口①口 |①-②③|
口⑥口① |④⑤⑥-|
④口口⑤
②口口③

口⑨⑨口
⑨口口⑨
口⑧⑧口 |⑦-⑧-|
口⑦⑦口 |⑨---|
4
④⑧④⑧ |①-②-|
⑧④⑧④ |③-④-|
口⑦③口 |⑤-⑥-|
⑤②⑥① |⑦-⑧-|
5
口口①口 |①-②③|
口⑥口① |④⑤⑥-|
④口口⑤
②口口③

口⑨⑨口
⑨口口⑨
口⑧⑧口 |⑦-⑧-|
口⑦⑦口 |⑨---|
6
口口口口 |①--②|
口②口口 |--③-|
①口口①
①口③①

口④④⑤
④口⑦④
口口口口 |④-⑤-|
⑥口口口 |⑥-⑦-|
7
①口口口 |①-②③|
④①口口 |--④-|
口口①口
口②③①

口口口⑤
口⑥⑤口
口⑤⑥口 |⑤---|
⑤口口口 |--⑥-|
8
口①口口 |①---|
①口②口 |--②-|
口②口①
口口①口

口④③口
口口口③
③口口口 |③---|
口③口口 |--④-|
9
⑥口⑤口 |①-②-|
口口口⑤ |③-④-|
⑦④③口 |⑤--⑥|
口②①口 |⑦---|
10
④口⑥② |①--②|
⑤口⑦口 |--③-|
④口⑥口 |④-⑤-|
口①①③ |⑥-⑦-|
11
④④④④ |①--②|
③口口① |--③-|
⑤口口⑤ |④---|
①②②③ |--⑤-|
12
⑤口④⑤ |①-②-|
口口③口 |③-④-|
口⑦②口 |⑤---|
⑥口①⑥ |⑥-⑦-|
13
口⑦③口 |①-②-|
⑧②①④ |③-④-|
口⑦③口 |⑤-⑥-|
⑧⑤⑥④ |⑦-⑧-|
14
口口③口 |①-②-|
口口①④ |③-④-|
口口③口
口②口④

⑨口口⑨
口⑥⑧口
⑤口口⑦ |⑤⑥-⑦|
口口口口 |⑧-⑨-|
15
口口③口 |①-②-|
口口口④ |③-④-|
口②③口
口口①④

口⑦口口
⑧口⑥口
口⑦口口 |⑤-⑥-|
⑧⑤口口 |⑦-⑧-|
16
①③②④ |①--②|
口口④口 |--③-|
口④口口 |④---|
④②③① |----|
17
①④口口 |①--②|
②口⑤口 |--③-|
③⑥口口 |④---|
口口口口 |--⑤⑥|
18
⑤②③口 |①-②③|
口⑥口口 |--④-|
口口⑦口 |⑤---|
④口①口 |--⑥⑦|
19
②口口③ |①--②|
口口口④ |--③-|
口口口⑤ |④-⑤-|
口①⑦⑥ |⑥-⑦-|
20
④口口④ |①--②|
口③⑤口 |--③-|
口⑥②口 |④---|
口①口口 |--⑤⑥|
21
口口口口 |①--②|
口②口口 |--③-|
口口③口
口口①口

口口口口
④口口④
口⑥口口 |④---|
口口⑤口 |--⑤⑥|
22
口口口口 |①--②|
口③①口 |--③-|
口口②口
口口口口

④口口④
口口⑤口
口⑥口口 |④---|
口口口口 |--⑤⑥|
23
④口口口 |①--②|
⑤②口口 |--③-|
⑥口③口 |④-⑤-|
⑦口①口 |⑥-⑦-|
24
③③②② |①---|
③口口② |②---|
口口口口 |③---|
口①口④ |④---|

BPM: 199
25
口口①① |①---|
口口口口 |--②-|
口④③② |③-④-|
口口口口
26
口口口口 |①---|
③①口口 |②---|
口口口口 |③---|
口②口口
27
口①口口 |①-②-|
口口②口 |③-④-|
口③⑥口 |⑤-⑥-|
口⑤④口
28
口口口口 |①---|
口①口口 |----|
口口口口 |②---|
②口口口
29
①①口口 |①---|
口口口口 |--②-|
口口③② |③---|
口口口口
30
口口口口 |①---|
③①口口 |②---|
口口口口 |③---|
口②口口
31
口②①① |①---|
口口③口 |--②-|
口④口口 |③-④-|
口口口口
32
口口口口 |①---|
口口口口 |----|
口口口③ |②-③-|
口口①②
33
②口口口 |①---|
③口口① |--②-|
口口口口 |③---|
口口口口
34
口①口① |①---|
口②口② |②---|
口③口③ |③---|
口口口口
35
口口口口 |①-②-|
④口②口 |③-④-|
口⑥⑤口 |⑤-⑥-|
口③口①

BPM: 139
36
②①①② |①---|
口口口口 |②-③-|
口口口口
③口口③
37
⑯⑧⑦⑮ |①②③④|
⑭⑥⑤⑬ |⑤⑥⑦⑧|
⑫④③⑪ |⑨⑩⑪⑫|
⑩②①⑨ |⑬⑭⑮⑯|
38
⑩⑧⑦⑩ |①②③④|
口⑥⑤口 |⑤⑥⑦⑧|
⑨④③⑨ |⑨---|
⑪②①⑪ |⑩-⑪-|
39
⑧⑩③⑭ |①②③④|
②⑥⑪⑦ |⑤⑥⑦⑧|
口④①⑬ |⑨⑩⑪⑫|
⑫口⑤⑨ |⑬-⑭-|
40
口③②口 |①-②-|
③口口② |③-④-|
①口口④
口①④口

⑤口口⑤
口⑤⑤⑧
口⑦⑥口 |⑤-⑥⑦|
⑨口口口 |⑧-⑨-|
41
③②②② |①--②|
③口口口 |--③-|
③口口口
口①①①

口口口⑦
口口口⑦
口④⑤⑦ |④-⑤-|
口⑥口口 |⑥-⑦-|
42
⑤⑥⑥⑤ |①-②③|
①口②口 |--④-|
①③口口 |⑤---|
①④④口 |--⑥-|
43
④⑧⑥② |①-②-|
④⑧⑥② |③-④-|
口口口口 |⑤-⑥-|
③⑦⑤① |⑦-⑧-|
44
口口口口 |①-②-|
⑤口口口 |③-④-|
④③②① |⑤--⑥|
口⑦⑥口 |⑦---|
45
②②①① |①--②|
②②①① |--③-|
④⑤⑥⑦ |④-⑤-|
口口口③ |⑥-⑦-|
46
口①②口 |①--②|
①口口② |--③-|
口口口口
③口口③

④⑤⑤④
口口口口
口口口口 |④---|
口口口口 |--⑤-|
47
④⑧⑥② |①-②-|
④⑧⑥② |③-④-|
口口口口 |⑤-⑥-|
③⑦⑤① |⑦-⑧-|
48
口⑤⑥⑤ |①-②-|
⑤⑦⑤口 |③-④-|
④口口③ |⑤---|
②口口① |⑥-⑦-|
49
⑧口口④ |①-②-|
⑥口口② |③-④-|
⑦口口③ |⑤-⑥-|
⑤①⑤① |⑦-⑧-|
50
口①口口 |①②③④|
⑤口②⑥ |⑤-⑥-|
口③口口
口口④口

口⑨口⑨
口口口口
⑧口⑧⑩ |⑦-⑧-|
口⑦口⑦ |⑨-⑩-|
51
①③①② |①---|
①①①口 |----|
口①口口 |②-③-|
⑤口④口 |④-⑤-|
52
④⑧④⑧ |①-②-|
⑧④⑧④ |③-④-|
口⑦③口 |⑤-⑥-|
⑤②⑥① |⑦-⑧-|
53
口口①口 |①-②③|
口⑥口① |④⑤⑥-|
④口口⑤
②口口③

口⑨⑨口
⑨口口⑨
口⑧⑧口 |⑦-⑧-|
口⑦⑦口 |⑨---|
54
④⑧④⑧ |①-②-|
⑧④⑧④ |③-④-|
口⑦③口 |⑤-⑥-|
⑤②⑥① |⑦-⑧-|
55
口口①口 |①-②③|
口⑥口① |④⑤⑥-|
④口口⑤
②口口③

口⑨⑨口
⑨口口⑨
口⑧⑧口 |⑦-⑧-|
口⑦⑦口 |⑨---|
56
①口口① |①---|
口①①口 |----|
①口口① |----|
口口口口 |----|
57
口口口口 |①--②|
口口口口 |--③-|
口口口口
①③②①

④口④⑤
④④④⑥
④④④⑦ |④---|
口口口⑧ |⑤⑥⑦⑧----|

不確定度: 0

最終更新:2016年06月17日 17:58