魔理沙は大変なものを盗んでいきました
ARM+夕野ヨシミ (IOSYS) feat. 藤咲かりん

BASIC

Level: 3
BPM: 170
Notes: 303

1
口口口口 |----|
口口口口 |----|
口口口口 |----|
口口口口 |----|
2
口口口口 |①---|
口口①口 |----|
口口②口 |②---|
口口口口 |----|
3
口口口口 |①---|
口①口口 |----|
口②口口 |②---|
口口口口 |----|
4
口口口口 |①---|
口口①口 |----|
口口②口 |②---|
口口口口 |----|
5
口口口口 |①---|
口①口口 |----|
口②口口 |②---|
口口口口 |----|
6
口口口口 |①---|
口口②① |----|
口口口口 |②---|
口口口口 |----|
7
口口口口 |①---|
口口口口 |----|
口②①口 |②---|
口口口口 |----|
8
口口口口 |①---|
②①口口 |----|
口口口口 |②---|
口口口口 |----|
9
①口口口 |①---|
②④④口 |②---|
③口口口 |③---|
口口口口 |④---|
10
口口口① |①---|
口口口② |②---|
口口口③ |③---|
口口口④ |④---|
11
口口口口 |①---|
口④④口 |②---|
口口口口 |③---|
③②①口 |④---|
12
①口口口 |①---|
②口口口 |②---|
③口口口 |③---|
④口口口 |④---|
13
口口口口 |①---|
口④④口 |②---|
口口口口 |③---|
口①②③ |④---|
14
口口口① |①---|
口口口② |②---|
口口口③ |③---|
口口口④ |④---|
15
口口口口 |①---|
口④④口 |②---|
口口口口 |③---|
③②①口 |④---|
16
①口口口 |①---|
②口口口 |②---|
③口口口 |③---|
④口口口 |④---|
17
口口口口 |①---|
口③③口 |②---|
口④④口 |③---|
口①②口 |④---|
18
①②③④ |①---|
口口口口 |②---|
口口口口 |③---|
口口口口 |④---|
19
口口口口 |①---|
口④④① |②---|
口口口② |③---|
口口口③ |④---|
20
④③②① |①---|
口口口口 |②---|
口口口口 |③---|
口口口口 |④---|
21
口口口口 |①---|
①④④口 |②---|
②口口口 |③---|
③口口口 |④---|
22
①②③④ |①---|
口口口口 |②---|
口口口口 |③---|
口口口口 |④---|
23
口口口口 |①---|
口④④① |②---|
口口口② |③---|
口口口③ |④---|
24
口②①口 |①---|
口④③口 |②---|
口口口口 |③---|
口口口口 |④---|
25
口口口口 |①---|
③口口③ |②---|
④②①④ |③---|
口口口口 |④---|
26
口①①口 |①---|
口口口口 |----|
口②口口 |②---|
口口口口 |----|
27
口口口口 |①---|
口口②口 |----|
口口①口 |②---|
口口口口 |----|
28
口口口口 |①---|
口①口口 |----|
口②口口 |②---|
口口口口 |----|
29
口口口口 |①---|
口口②口 |----|
口口①口 |②---|
口口口口 |----|
30
①口口① |①---|
口②口口 |----|
口③口口 |②---|
口口口口 |③---|
31
①口口① |①---|
口口②口 |----|
口口③口 |②---|
口口口口 |③---|
32
①口口① |①---|
口②口口 |----|
口③口口 |②---|
口口口口 |③---|
33
①口口① |①---|
口②②口 |----|
口③③口 |②---|
口口口口 |③---|
34
口口口① |①---|
口口口② |②---|
口口口③ |③---|
口口口④ |④---|
35
口口④口 |①---|
口口③口 |②---|
口口②口 |③---|
口口①口 |④---|
36
口①口口 |①---|
口②口口 |②---|
口③口口 |③---|
口④口口 |④---|
37
口口口口 |①---|
口③③口 |②---|
②口口口 |③---|
①口口口 |----|
38
①口口口 |①---|
②口口口 |②---|
③口口口 |③---|
④口口口 |④---|
39
口④口口 |①---|
口③口口 |②---|
口②口口 |③---|
口①口口 |④---|
40
口口①口 |①---|
口口②口 |②---|
口口③口 |③---|
口口④口 |④---|
41
口口口口 |①---|
口③③口 |②---|
口口口② |③---|
口口口① |----|
42
④③②① |①---|
口口口口 |②---|
口口口口 |③---|
口口口口 |④---|
43
口口口口 |①---|
①②③④ |②---|
口口口口 |③---|
口口口口 |④---|
44
口口口口 |①---|
口口口口 |②---|
④③②① |③---|
口口口口 |④---|
45
口口口口 |①---|
口口口口 |②---|
口口口口 |③---|
①②③④ |④---|
46
口口口口 |①---|
口口口口 |②---|
④③②① |③---|
口口口口 |④---|
47
口口口口 |①---|
①②③④ |②---|
口口口口 |③---|
口口口口 |④---|
48
口口口口 |①---|
口③④口 |②---|
口①②口 |③---|
口口口口 |④---|
49
口①②口 |①---|
口口口口 |②---|
口③③口 |③---|
口口口口 |----|
50
口口口口 |①---|
口①①口 |----|
口口口口 |----|
口口口口 |----|
51
口口口口 |①---|
口口口口 |----|
口①①口 |②---|
②口口② |----|
52
口口口口 |①---|
口①①口 |----|
口②②口 |②---|
口口口口 |----|
53
①口口① |①---|
口口口口 |----|
口②②口 |②---|
口口口口 |----|
54
口口口口 |①---|
口③口口 |----|
口②口口 |②---|
口①①口 |③---|
55
口①②口 |①---|
口口③口 |----|
口口口口 |②---|
口口口口 |③---|
56
②口口② |①---|
口口口口 |----|
口口①口 |②---|
口口口口 |----|
57
口口口口 |①---|
口口口③ |----|
口①①② |②---|
口口口口 |③---|
58
口口口① |①---|
口口口口 |----|
口口口口 |----|
口口口口 |----|
59
口口口口 |①---|
口②②口 |----|
口①①口 |②---|
口口口口 |----|
60
口①①口 |①---|
口口口口 |----|
口②②口 |②---|
口口口口 |----|
61
①口口① |①---|
口口口口 |----|
②口口口 |②---|
口口口口 |----|
62
口口口口 |①---|
口口口口 |----|
口①②口 |②---|
口口口口 |----|
63
口口口口 |①---|
口口口口 |----|
口口口① |②---|
口②②口 |----|
64
①口口① |①---|
口口口口 |----|
口②②口 |②---|
口口口口 |----|
65
口④口口 |①---|
口③口口 |②---|
口②口口 |③---|
口①口口 |④---|
66
口④④口 |①---|
口口①口 |②---|
口口②口 |③---|
口口③口 |--④-|
67
口口口口 |----|
口口口口 |----|
口口口口 |----|
口口口口 |----|
68
口④④口 |①---|
口①口口 |②---|
口②口口 |③---|
口③口口 |--④-|
69
口口口口 |----|
口口口口 |----|
口口口口 |----|
口口口口 |----|
70
口口口口 |①---|
①②③④ |②---|
口口口口 |③---|
口口口口 |④---|
71
口口口口 |①---|
口口口口 |②---|
④③②① |③---|
口口口口 |④---|
72
口口口口 |①---|
口口口口 |②---|
口口口口 |③---|
①②③④ |④---|
73
口①①口 |①---|
口口口口 |----|
口口口口 |----|
口口口口 |----|
74
④口口④ |①---|
口①①口 |②---|
口②②口 |③---|
口③③口 |--④-|
75
口口口口 |----|
口口口口 |----|
口口口口 |----|
口口口口 |----|
76
④口口④ |①---|
口①①口 |②---|
口②②口 |③---|
口③③口 |--④-|
77
口口口口 |----|
口口口口 |----|
口口口口 |----|
口口口口 |----|
78
口口口口 |①---|
④③②① |②---|
口口口口 |③---|
口口口口 |④---|
79
口口口口 |①---|
口口口口 |②---|
①②③④ |③---|
口口口口 |④---|
80
口②②口 |①---|
口①①口 |----|
口口口口 |②---|
口口口口 |----|
81
①口口① |①---|
口口口口 |----|
口②②口 |②---|
口③③口 |③---|
82
①口口① |①---|
口口口口 |----|
口口口口 |----|
口口口口 |----|
83
口口口口 |①---|
口口口口 |----|
口①①口 |----|
口口口口 |----|
84
①①①① |①---|
口口口口 |----|
口口口口 |----|
口口口口 |----|

不確定度: 0

最終更新:2016年07月27日 22:40