最終鬼畜妹フランドール・S
ビートまりお(COOL&CREATE)

BASIC

Level: 4
BPM: 200
Notes: 429

1
口口口口 |----|
口口口口 |----|
口口口口 |----|
口口口口 |----|
2
口口口口 |①---|
口口口口 |----|
口口①① |----|
口口①① |----|
3
口口口口 |----|
口口口口 |----|
口口口口 |----|
口口口口 |----|
4
口口口口 |①---|
口口口口 |----|
①①口口 |----|
①①口口 |----|
5
口口口口 |----|
口口口口 |----|
口口口口 |----|
口口口口 |----|
6
口口①① |①---|
口口①① |----|
口口口口 |----|
口口口口 |----|
7
口口口口 |----|
口口口口 |----|
口口口口 |----|
口口口口 |----|
8
①①口口 |①---|
①①口口 |----|
口口口口 |----|
口口口口 |----|
9
口口口口 |----|
口口口口 |----|
口口口口 |----|
口口口口 |----|
10
①②口口 |①---|
口口口口 |----|
口口口口 |②---|
口口口口 |----|
11
口口①② |①---|
口口口口 |----|
口口口口 |②---|
口口口口 |----|
12
口口口口 |①---|
口口②① |----|
口口口口 |②---|
口口口口 |----|
13
口口口口 |①---|
②①口口 |----|
口口口口 |②---|
口口口口 |----|
14
口口口口 |①---|
口口口口 |----|
①②口口 |②---|
口口口口 |----|
15
口口口口 |①---|
口口口口 |----|
口口①② |②---|
口口口口 |----|
16
口口口口 |①---|
口口口口 |----|
口口口口 |②---|
口口②① |----|
17
口口口口 |①---|
口口口口 |----|
口口口口 |②---|
②①口口 |----|
18
口口口口 |①---|
②口口口 |----|
①口口口 |②---|
口口口口 |----|
19
①②口口 |①---|
口口口口 |----|
口口口口 |②---|
口口口口 |----|
20
口口①② |①---|
口口口口 |----|
口口口口 |②---|
口口口口 |----|
21
口口口口 |①---|
口口口① |----|
口口口② |②---|
口口口口 |----|
22
口口口口 |①---|
口口口口 |----|
口口口口 |②---|
口口②① |----|
23
口口口口 |①---|
口口口口 |----|
口口口口 |②---|
②①口口 |----|
24
口口口口 |①---|
②口口口 |----|
①口口口 |②---|
口口口口 |----|
25
①口口口 |①---|
口②②口 |----|
口口口口 |②---|
口口口口 |----|
26
口口口① |①---|
口口口② |②---|
口口口③ |③---|
口口口④ |④---|
27
口口口口 |①---|
④④口口 |②---|
③③口口 |③---|
口②①口 |④---|
28
④③②① |①---|
口口口口 |②---|
口口口口 |③---|
口口口口 |④---|
29
口③③口 |①---|
口口②② |②---|
①①口口 |③---|
口口口口 |----|
30
①口口口 |①---|
②口口口 |②---|
③口口口 |③---|
④口口口 |④---|
31
口口口口 |①---|
口口④④ |②---|
口口③③ |③---|
口①②口 |④---|
32
①②③④ |①---|
口口口口 |②---|
口口口口 |③---|
口口口口 |④---|
33
口口口口 |①---|
口①①口 |----|
口①①口 |----|
口口口口 |----|
34
口口口① |①---|
口口口② |②---|
口口口③ |③---|
口口口④ |④---|
35
口口口口 |①---|
④④口口 |②---|
③③口口 |③---|
口②①口 |④---|
36
④③②① |①---|
口口口口 |②---|
口口口口 |③---|
口口口口 |④---|
37
口③③口 |①---|
口口②② |②---|
①①口口 |③---|
口口口口 |----|
38
①口口口 |①---|
②口口口 |②---|
③口口口 |③---|
④口口口 |④---|
39
口口口口 |①---|
口口④④ |②---|
口口③③ |③---|
口①②口 |④---|
40
①②③④ |①---|
口口口口 |②---|
口口口口 |③---|
口口口口 |④---|
41
口口口口 |①---|
口①①口 |----|
口①①口 |----|
口口口口 |----|
42
①②③口 |①---|
口口口口 |--②-|
口口口口 |----|
口口口口 |③---|
43
口口③③ |①---|
口口①① |--②-|
口口②② |----|
口口口口 |③---|
44
口口口口 |①---|
口③②① |--②-|
口口口口 |----|
口口口口 |③---|
45
口口口口 |①---|
③③口口 |--②-|
①①口口 |----|
②②口口 |③---|
46
①②③口 |①---|
口口口口 |--②-|
口口口口 |----|
口口口口 |③---|
47
口口③③ |①---|
口口①① |--②-|
口口②② |----|
口口口口 |③---|
48
口口口口 |①---|
口③②① |--②-|
口口口口 |----|
口口口口 |③---|
49
口口口口 |①---|
③③口口 |--②-|
①①口口 |----|
②②口口 |③---|
50
①②③口 |①---|
口口口口 |--②-|
口口口口 |----|
口口口口 |③---|
51
口口③③ |①---|
口口①① |--②-|
口口②② |----|
口口口口 |③---|
52
口口口口 |①---|
口③②① |--②-|
口口口口 |----|
口口口口 |③---|
53
口口口口 |①---|
③③口口 |--②-|
①①口口 |----|
②②口口 |③---|
54
①②③口 |①---|
口口口口 |--②-|
口口口口 |----|
口口口口 |③---|
55
口口③③ |①---|
口口①① |--②-|
口口②② |----|
口口口口 |③---|
56
口口口口 |①---|
口③②① |--②-|
口口口口 |----|
口口口口 |③---|
57
口口口口 |①---|
口③③口 |--②-|
②②①① |----|
口口口口 |③---|
58
口口口口 |①---|
口口口① |----|
口口口口 |----|
口口口口 |----|
59
口口口口 |①---|
口口口口 |----|
口口口① |----|
口口口口 |----|
60
口口口口 |①---|
口口口口 |----|
口口口口 |----|
口口口① |----|
61
口口口口 |①---|
口口口口 |----|
口口口口 |----|
口口①口 |----|
62
口口口口 |①---|
口口口口 |----|
口口口口 |----|
口①口口 |----|
63
口口口口 |①---|
口口口口 |----|
口口口口 |----|
①口口口 |----|
64
口口口口 |①---|
②口口口 |----|
①口口口 |②---|
口口口口 |----|
65
①②口口 |①---|
口口口口 |----|
口口口口 |②---|
口口口口 |----|
66
口口口① |①---|
口口口② |②---|
口口口③ |③---|
口口口④ |④---|
67
口口口口 |①---|
④④口口 |②---|
③③口口 |③---|
口②①口 |④---|
68
④③②① |①---|
口口口口 |②---|
口口口口 |③---|
口口口口 |④---|
69
口③③口 |①---|
口口②② |②---|
①①口口 |③---|
口口口口 |----|
70
①口口口 |①---|
②口口口 |②---|
③口口口 |③---|
④口口口 |④---|
71
口口口口 |①---|
口口④④ |②---|
口口③③ |③---|
口①②口 |④---|
72
①②③④ |①---|
口口口口 |②---|
口口口口 |③---|
口口口口 |④---|
73
口口口口 |①---|
口①①口 |----|
口①①口 |----|
口口口口 |----|
74
口口①① |①---|
口口②② |②---|
口口③③ |③---|
口口④④ |④---|
75
④④④④ |①---|
③③③③ |②---|
口②口口 |③---|
口①口口 |④---|
76
口口口口 |①---|
口口口口 |②---|
④③②① |③---|
口口口口 |④---|
77
口口口口 |①---|
口口口口 |②---|
口③③口 |③---|
②②①① |----|
78
①①口口 |①---|
②②口口 |②---|
③③口口 |③---|
④④口口 |④---|
79
④④④④ |①---|
③③③③ |②---|
口口②口 |③---|
口口①口 |④---|
80
口口口口 |①---|
口口口口 |②---|
④③②① |③---|
口口口口 |④---|
81
口①①口 |①---|
口①①口 |----|
口口口口 |----|
口口口口 |----|
82
口口①① |①---|
口口②② |②---|
口口③③ |③---|
口口④④ |④---|
83
④④④④ |①---|
③③③③ |②---|
口②口口 |③---|
口①口口 |④---|
84
口口口口 |①---|
口口口口 |②---|
④③②① |③---|
口口口口 |④---|
85
口口口口 |①---|
口口口口 |②---|
口③③口 |③---|
②②①① |----|
86
①①口口 |①---|
②②口口 |②---|
③③口口 |③---|
④④口口 |④---|
87
④④④④ |①---|
③③③③ |②---|
口口②口 |③---|
口口①口 |④---|
88
口口口口 |①---|
口口口口 |②---|
④③②① |③---|
口口口口 |④---|
89
口①①口 |①---|
口①①口 |----|
口口口口 |----|
口口口口 |----|
90
①②③口 |①---|
口口口口 |--②-|
口口口口 |----|
口口口口 |③---|
91
口口③③ |①---|
口口①① |--②-|
口口②② |----|
口口口口 |③---|
92
口口口口 |①---|
口③②① |--②-|
口口口口 |----|
口口口口 |③---|
93
口口口口 |①---|
③③口口 |--②-|
①①口口 |----|
②②口口 |③---|
94
①②③口 |①---|
口口口口 |--②-|
口口口口 |----|
口口口口 |③---|
95
口口③③ |①---|
口口①① |--②-|
口口②② |----|
口口口口 |③---|
96
口口口口 |①---|
口③②① |--②-|
口口口口 |----|
口口口口 |③---|
97
口口口口 |①---|
③③口口 |--②-|
①①口口 |----|
②②口口 |③---|
98
①②③口 |①---|
口口口口 |--②-|
口口口口 |----|
口口口口 |③---|
99
口口③③ |①---|
口口①① |--②-|
口口②② |----|
口口口口 |③---|
100
口口口口 |①---|
口③②① |--②-|
口口口口 |----|
口口口口 |③---|
101
口口口口 |①---|
③③口口 |--②-|
①①口口 |----|
②②口口 |③---|
102
①②③口 |①---|
口口口口 |--②-|
口口口口 |----|
口口口口 |③---|
103
口口③③ |①---|
口口①① |--②-|
口口②② |----|
口口口口 |③---|
104
口口口口 |①---|
口③②① |--②-|
口口口口 |----|
口口口口 |③---|
105
①①口口 |①---|
口口②② |--②-|
口③③口 |----|
口口口口 |③---|
106
口口口口 |----|
①①①① |---①|
口口口口 |----|
口口口口 |----|

不確定度: 0

最終更新:2016年07月27日 22:45