白鳥の湖
Swan Lake Orchestra

BASIC

Level: 4
BPM: 180-300
Notes: 350

BPM: 180
1
口口口口 |----|
口口口口 |----|
口口口口 |----|
口口口口 |----|
2
口口口口 |----|
口口口口 |----|
口口口口 |----|
口口口口 |----|
3
口口口口 |----|
口口口口 |----|
口口口口 |----|
口口口口 |----|
4
口口口口 |①---|
③口口③ |----|
②口口② |②---|
口①①口 |③---|
5
①口口① |①---|
口②口口 |----|
口口口口 |②---|
口口口口 |----|
6
口口口口 |①---|
③口①③ |----|
②口口② |②---|
口口口口 |③---|
7
①口口① |①---|
口口口口 |----|
口口口口 |----|
口口口口 |----|
8
口口口口 |①---|
③口口③ |----|
②口口② |②---|
口①①口 |③---|
9
①口口① |①---|
口②口口 |----|
口口口口 |②---|
口口口口 |----|
10
口口口口 |①---|
③口①③ |----|
②口口② |②---|
口口口口 |③---|
11
①口②① |①---|
口口口口 |----|
口口口口 |----|
口口口口 |②---|
12
口口口口 |①---|
口①口口 |②---|
口口②口 |③---|
口③口口 |----|
13
①口口① |①---|
口口口口 |----|
口口口口 |----|
口口口口 |----|
14
口口口口 |①---|
①口口① |----|
口口口口 |----|
口口口口 |----|
15
口口口口 |①---|
口口口口 |----|
①口口① |②---|
口②③口 |③---|
16
口口①口 |①---|
口②口口 |②---|
口口③口 |③---|
口口口口 |----|
17
①口口① |①---|
口口口口 |----|
口口口口 |----|
口口口口 |----|
18
口口口口 |①---|
①口口① |----|
口口口口 |----|
口口口口 |----|
19
口口口口 |①---|
口口口口 |----|
①口口① |----|
口口口口 |----|
20
口②②口 |①---|
口③③口 |----|
口口口口 |②---|
①口口① |③---|
21
③口口③ |①---|
口口口口 |②---|
②①①② |③---|
口口口口 |----|
22
口口口口 |----|
口口口口 |----|
口口口口 |----|
口口口口 |----|

BPM: 220
23
口口口口 |①---|
③口口③ |----|
②口口② |②---|
口①①口 |③---|
24
①口口① |①---|
口②口口 |----|
口口口口 |②---|
口口口口 |----|
25
口口口口 |①---|
③口①③ |----|
②口口② |②---|
口口口口 |③---|
26
①口口① |①---|
口口口口 |----|
口口口口 |----|
口口口口 |----|
27
口口口口 |①---|
③口口③ |----|
②口口② |②---|
口①①口 |③---|
28
①口口① |①---|
口②口口 |----|
口口口口 |②---|
口口口口 |----|
29
口口口口 |①---|
③口①③ |----|
②口口② |②---|
口口口口 |③---|
30
①口②① |①---|
口口口口 |----|
口口口口 |----|
口口口口 |②---|
31
口口口口 |①---|
口①口口 |②---|
口口②口 |③---|
口③口口 |----|
32
①口口① |①---|
口口口口 |----|
口口口口 |----|
口口口口 |----|
33
口口口口 |①---|
①口口① |----|
口口口口 |----|
口口口口 |----|
34
口口口口 |①---|
口口口口 |----|
①口口① |②---|
口②③口 |③---|
35
口口①口 |①---|
口②口口 |②---|
口口③口 |③---|
口口口口 |----|
36
①口口① |①---|
口口口口 |----|
口口口口 |----|
口口口口 |----|
37
口口口口 |①---|
①口口① |----|
口口口口 |----|
口口口口 |----|
38
口口口口 |①---|
口口口口 |----|
①口口① |----|
口口口口 |----|
39
口口口口 |①---|
口口口口 |----|
口②②口 |②---|
①口口① |----|
40
口口口口 |①---|
③口口③ |----|
②口口② |②---|
口①①口 |③---|
41
①口口① |①---|
口②口口 |----|
口口口口 |②---|
口口口口 |----|
42
口口口口 |①---|
③口①③ |----|
②口口② |②---|
口口口口 |③---|
43
①口口① |①---|
口口口口 |----|
口口口口 |----|
口口口口 |----|
44
口口口口 |①---|
③口口③ |----|
②口口② |②---|
口①①口 |③---|
45
①口口① |①---|
口②口口 |----|
口口口口 |②---|
口口口口 |----|
46
口口口口 |①---|
③口①③ |----|
②口口② |②---|
口口口口 |③---|
47
①口②① |①---|
口口口口 |----|
口口口口 |----|
口口口口 |②---|
48
口口口口 |①---|
口①口口 |②---|
口口②口 |③---|
口③口口 |----|
49
①①①① |①---|
口口口口 |----|
口口口口 |----|
口口口口 |----|
50
口口口口 |①---|
①①①① |----|
口口口口 |----|
口口口口 |----|
51
口口口口 |①---|
口口口口 |----|
①①①① |②---|
口②③口 |③---|
52
口口①口 |①---|
口②口口 |②---|
口口③口 |③---|
口口口口 |----|
53
①①①① |①---|
口口口口 |----|
口口口口 |----|
口口口口 |----|
54
口口口口 |①---|
①①①① |----|
口口口口 |----|
口口口口 |----|
55
口口口口 |①---|
口口口口 |----|
①①①① |②---|
②口口② |----|
56
口口口口 |①---|
②②②② |----|
①口口① |②---|
口口口口 |----|
57
口口口口 |①---|
口口口口 |----|
②口口② |②---|
①口口① |----|
58
②②②② |①---|
①口口① |----|
口口口口 |②---|
口口口口 |----|
59
口口口口 |①---|
口口口口 |----|
②口口② |②---|
①口口① |----|
60
②②②② |①---|
①口口① |----|
口口口口 |②---|
口口口口 |----|
61
口口口口 |①---|
口口口口 |----|
②口口② |②---|
①口口① |----|
62
②②②② |①---|
①口口① |----|
口口口口 |②---|
口口口口 |----|
63
口口口口 |①---|
口口口口 |----|
②口口② |②---|
①口口① |----|
64
②②②② |①---|
①口口① |----|
口口口口 |②---|
口口口口 |----|
65
口口口口 |①---|
口口口口 |----|
②口口② |②---|
①口口① |----|
66
②②②② |①---|
①口口① |----|
口口口口 |②---|
口口口口 |----|
67
口口口口 |①---|
口口口口 |----|
②②②② |②---|
①①①① |----|
68
②②②② |①---|
①①①① |----|
口口口口 |②---|
口口口口 |----|
69
口口口口 |①---|
①②③④ |②---|
口口口口 |③---|
口口口口 |④---|
70
口口口口 |①---|
口口口口 |②---|
④③②① |③---|
口口口口 |④---|
71
口口口口 |①---|
①②③④ |②---|
口口口口 |③---|
口口口口 |④---|
72
口口口口 |①---|
口口口口 |②---|
④③②① |③---|
口口口口 |④---|

BPM: 300
73
口口口口 |----|
口口口口 |----|
口口口口 |----|
口口口口 |----|
74
口口口口 |①---|
口口口口 |----|
口口口口 |----|
口①①口 |----|
75
口口口口 |①---|
②口口② |----|
①口口① |②---|
口口口口 |----|
76
①口口① |①---|
口口口口 |----|
口口口口 |----|
口口口口 |----|
77
口口口口 |①---|
口①口口 |----|
口口口口 |----|
口口口口 |----|
78
口口口口 |①---|
口口①口 |----|
口口②口 |②---|
口口口口 |----|
79
口口口口 |①---|
口口口口 |----|
口①口口 |②---|
口②口口 |----|
80
口口口口 |①---|
口口口口 |----|
口口口口 |②---|
口口①② |----|
81
口口口口 |①---|
口口口② |----|
口口口① |②---|
口口口口 |----|
82
口口口口 |①---|
口口口口 |----|
口口口口 |----|
口①①口 |----|
83
口口口口 |①---|
②口口② |----|
①口口① |②---|
口口口口 |----|
84
①口口① |①---|
口口口口 |----|
口口口口 |----|
口口口口 |----|
85
口口口口 |①---|
口①①口 |----|
口口口口 |----|
口口口口 |----|

BPM: 250
86
①①①① |①---|
②②②② |----|
口口口口 |②---|
口口口口 |----|
87
口口口口 |①---|
口口口口 |----|
①①①① |②---|
②②②② |----|
88
①①①① |①---|
②②②② |----|
口口口口 |②---|
口口口口 |----|
89
口口口口 |①---|
口口口口 |----|
①①①① |②---|
②②②② |----|
90
口口口口 |①---|
①②③④ |②---|
口口口口 |③---|
口口口口 |④---|
91
口口口口 |①---|
口口口口 |②---|
④③②① |③---|
口口口口 |④---|
92
口口口口 |----|
口口口口 |----|
口口口口 |----|
口口口口 |----|
93
口口口口 |----|
口①①口 |----|
口口口口 |----|
口口口口 |①---|

BPM: 220
94
口口口口 |----|
口口口口 |----|
口①口口 |----|
口口口口 |①---|
95
口口口口 |----|
口口口口 |①---|
口口①口 |----|
口②②口 |②---|


不确定度: 0

タグ:

+ タグ編集
  • タグ:

このサイトはreCAPTCHAによって保護されており、Googleの プライバシーポリシー利用規約 が適用されます。

最終更新:2012年11月10日 14:04