最終鬼畜妹フランドール・S
ビートまりお(COOL&CREATE)

ADVANCED

Level: 7
BPM: 200
Notes: 621

1
口口口口 |----|
口口口口 |----|
口口口口 |----|
口口口口 |----|
2
口口口① |①---|
口口①口 |----|
口①口口 |----|
①口口口 |----|
3
口口口口 |----|
口口口口 |----|
口口口口 |----|
口口口口 |----|
4
①口口口 |①---|
口①口口 |----|
口口①口 |----|
口口口① |----|
5
口口口口 |----|
口口口口 |----|
口口口口 |----|
口口口口 |----|
6
口口口① |①---|
口口①口 |----|
口①口口 |----|
①口口口 |----|
7
口口口口 |----|
口口口口 |----|
口口口口 |----|
口口口口 |----|
8
①口口口 |①---|
口①口口 |----|
口口①口 |----|
口口口① |----|
9
口口①① |①---|
口口口口 |----|
口口口口 |②---|
②②口口 |----|
10
口口口⑤ |①---|
口③②口 |②---|
口④口① |③---|
口口口口 |④-⑤-|
11
①②口口 |--①-|
口口口口 |②---|
③口口口 |③---|
口④口口 |④---|
12
口口口⑤ |①---|
口③②口 |②---|
口④口① |③---|
口口口口 |④-⑤-|
13
①②口口 |--①-|
口口口口 |②---|
③口口口 |③---|
口口口口 |----|
14
口口口⑤ |①---|
口③②口 |②---|
口④口口 |③---|
口口①① |④-⑤-|
15
①②口口 |--①-|
口口口口 |②---|
③口口口 |③---|
口④口口 |④---|
16
口口口⑤ |①---|
口③②口 |②---|
口④口口 |③---|
口口①① |④-⑤-|
17
①②口口 |--①-|
口口口口 |②---|
③口口口 |③---|
口口口口 |----|
18
口口口⑤ |①---|
口③②口 |②---|
口④口① |③---|
口口口口 |④-⑤-|
19
①②口口 |--①-|
口口口口 |②---|
③口口口 |③---|
口④口口 |④---|
20
口口口⑤ |①---|
口③②口 |②---|
口④口① |③---|
口口口口 |④-⑤-|
21
①②口口 |--①-|
口口口口 |②---|
③口口口 |③---|
口口口口 |----|
22
口口口⑤ |①---|
口③②口 |②---|
口④口① |③---|
口口口口 |④-⑤-|
23
①②口口 |--①-|
口口口口 |②---|
③口口口 |③---|
口④口口 |④---|
24
口口口⑤ |①---|
口③②口 |②---|
口④口① |③---|
口口口口 |④-⑤-|
25
①②口口 |--①-|
口③③口 |②---|
口口口口 |③---|
口口口口 |----|
26
口口口口 |①---|
口④口② |②---|
口口口口 |③---|
口③⑤① |④-⑤-|
27
口③口⑤ |--①-|
口口②口 |②-③-|
口①口④ |④---|
口口口口 |⑤---|
28
口口口口 |①-②-|
⑨①⑥② |③-④-|
⑦③口④ |⑤-⑥⑦|
口⑤⑧口 |⑧-⑨-|
29
②②①① |①---|
口③③口 |②---|
口③③口 |③---|
口口口口 |----|
30
口口口口 |①---|
②口④口 |②---|
口口口口 |③---|
①⑤③口 |④-⑤-|
31
⑤口③口 |--①-|
口②口口 |②-③-|
④口①口 |④---|
口口口口 |⑤---|
32
口口口口 |①-②-|
②⑥①⑨ |③-④-|
④口③⑦ |⑤-⑥⑦|
口⑧⑤口 |⑧-⑨-|
33
①①①① |①---|
口口口口 |----|
口口口口 |----|
口口口口 |----|
34
口口口口 |①---|
②口口口 |②---|
口口口口
①口口口

口口口口
口口口④
口口口口 |③---|
⑤口口③ |④-⑤-|
35
⑤口③口 |--①-|
口②口口 |②-③-|
④口①口 |④---|
口口口口 |⑤---|
36
口口口口 |①-②-|
②⑥①⑨ |③-④-|
④口③⑦ |⑤-⑥⑦|
口⑧⑤口 |⑧-⑨-|
37
②②①① |①---|
口③③口 |②---|
口③③口 |③---|
口口口口 |----|
38
④口口② |①---|
口口口口 |②---|
③口口① |③---|
口口⑤口 |④-⑤-|
39
⑤③口口 |--①-|
口口②口 |②-③-|
④①口口 |④---|
口口口口 |⑤---|
40
口口口口 |①-②-|
⑨①⑥② |③-④-|
⑦③口④ |⑤-⑥⑦|
口⑤⑧口 |⑧-⑨-|
41
①①①① |①---|
口口口口 |----|
口口口口 |----|
口口口口 |----|
42
口③②① |①-②-|
④⑤⑥口 |③-④-|
口口⑧⑦ |⑤-⑥-|
口口口口 |⑦-⑧-|
43
口口②② |①---|
口口口口 |--②-|
口③③口 |----|
①①口口 |③---|
44
①②③口 |①-②-|
口⑥⑤④ |③-④-|
⑦⑧口口 |⑤-⑥-|
口口口口 |⑦-⑧-|
45
②②口口 |①---|
口口口口 |--②-|
③③口口 |----|
口口①① |③---|
46
口③②① |①-②-|
④⑤⑥口 |③-④-|
口口⑧⑦ |⑤-⑥-|
口口口口 |⑦-⑧-|
47
口口②② |①---|
口口口口 |--②-|
口③③口 |----|
①①口口 |③---|
48
①②③口 |①-②-|
口⑥⑤④ |③-④-|
⑦⑧口口 |⑤-⑥-|
口口口口 |⑦-⑧-|
49
②②口口 |①---|
口口口口 |--②-|
口③③口 |----|
口口①① |③---|
50
口口口① |①-②-|
⑥⑧口② |③-④-|
⑤口⑦③ |⑤-⑥-|
④口口口 |⑦-⑧-|
51
口口①① |①---|
口口口口 |--②-|
口③③口 |----|
②②口口 |③---|
52
①口口口 |①-②-|
②口⑧⑥ |③-④-|
③⑦口⑤ |⑤-⑥-|
口口口④ |⑦-⑧-|
53
①①口口 |①---|
口口口口 |--②-|
口③③口 |----|
口口②② |③---|
54
口口口① |①-②-|
⑥⑧口② |③-④-|
⑤口⑦③ |⑤-⑥-|
④口口口 |⑦-⑧-|
55
口口①① |①---|
口口口口 |--②-|
口③③口 |----|
②②口口 |③---|
56
①口口口 |①-②-|
②口⑧⑥ |③-④-|
③⑦口⑤ |⑤-⑥-|
口口口④ |⑦-⑧-|
57
①①②② |①---|
口③③口 |--②-|
口③③口 |----|
口口口口 |③---|
58
口口口口 |①---|
口口口口 |②---|
④口口口 |③---|
③②①口 |④---|
59
②③④口 |①---|
①口口口 |②---|
口口口口 |③---|
口口口口 |④---|
60
口口口① |①---|
口口口② |②---|
口口口③ |③---|
口口口④ |④---|
61
口口口口 |①---|
口口口口 |②---|
④口口口 |③---|
③②①口 |④---|
62
②③④口 |①---|
①口口口 |②---|
口口口口 |③---|
口口口口 |④---|
63
口口口① |①---|
口口口② |②---|
口口口③ |③---|
口口口④ |④---|
64
口口口口 |①---|
口口口口 |②---|
④口口口 |③---|
③②①口 |④---|
65
②③④口 |①---|
①口口口 |②---|
口口口口 |③---|
口口口口 |④---|
66
口口口口 |①---|
口④口② |②---|
口口口口 |③---|
口③⑤① |④-⑤-|
67
口③口⑤ |--①-|
口口②口 |②-③-|
口①口④ |④---|
口口口口 |⑤---|
68
口口口口 |①-②-|
⑨①⑥② |③-④-|
⑦③口④ |⑤-⑥⑦|
口⑤⑧口 |⑧-⑨-|
69
②②①① |①---|
口③③口 |②---|
口③③口 |③---|
口口口口 |----|
70
口口口口 |①---|
②口④口 |②---|
口口口口 |③---|
①⑤③口 |④-⑤-|
71
⑤口③口 |--①-|
口②口口 |②-③-|
④口①口 |④---|
口口口口 |⑤---|
72
口口口口 |①-②-|
②⑨①⑥ |③-④-|
④⑦③口 |⑤-⑥⑦|
口口⑤⑧ |⑧-⑨-|
73
①①①① |①---|
口口口口 |----|
口口口口 |----|
口口口口 |----|
74
口口口② |①---|
口口口口 |②---|
口口口口
①口口口

④口口口
口口口口
口口口口 |③---|
⑤口口③ |④-⑤-|
75
口口③⑤ |--①-|
口②口口 |②-③-|
口口①口 |④---|
口口口④ |⑤---|
76
口口口口 |①-②-|
②⑥①⑨ |③-④-|
④口③⑦ |⑤-⑥⑦|
口⑧⑤口 |⑧-⑨-|
77
②②①① |①---|
口③③口 |②---|
口③③口 |③---|
口口口口 |----|
78
②口口口 |①---|
口口口口 |②---|
口口口口
口口口①

口口口④
口口口口
口口口口 |③---|
③口口⑤ |④-⑤-|
79
⑤③口口 |--①-|
口口②口 |②-③-|
口①口口 |④---|
④口口口 |⑤---|
80
口口口口 |①-②-|
⑨①⑥② |③-④-|
⑦③口④ |⑤-⑥⑦|
口⑤⑧口 |⑧-⑨-|
81
①①①① |①---|
口口口口 |②---|
口④③② |③---|
口口口口 |④---|
82
②口口④ |①---|
口②④口 |②---|
⑤⑤口口 |③---|
③③①① |④-⑤-|
83
⑤⑤③口 |--①-|
口②口口 |②-③-|
口口①口 |④---|
口口④④ |⑤---|
84
口口口口 |①-②-|
②⑥①⑨ |③-④-|
④口③⑦ |⑤-⑥⑦|
口⑧⑤口 |⑧-⑨-|
85
②②①① |①---|
口③③口 |②---|
口③③口 |③---|
口口口口 |----|
86
口②口口 |①---|
②口口口 |②---|
口口口口
口口①①

口口④口
口口口④
口口口口 |③---|
③③⑤⑤ |④-⑤-|
87
口③⑤⑤ |--①-|
口口②口 |②-③-|
口①口口 |④---|
④④口口 |⑤---|
88
口口口口 |①-②-|
⑨①⑥② |③-④-|
⑦③口④ |⑤-⑥⑦|
口⑤⑧口 |⑧-⑨-|
89
①①①① |①---|
口口口口 |----|
口口口口 |----|
口口口口 |----|
90
口③②① |①-②-|
④⑤⑥口 |③-④-|
口口⑧⑦ |⑤-⑥-|
口口口口 |⑦-⑧-|
91
口口②② |①---|
口口口口 |--②-|
口③③口 |----|
①①口口 |③---|
92
①②③口 |①-②-|
口⑥⑤④ |③-④-|
⑦⑧口口 |⑤-⑥-|
口口口口 |⑦-⑧-|
93
②②口口 |①---|
口口口口 |--②-|
③③口口 |----|
口口①① |③---|
94
口③②① |①-②-|
④⑤⑥口 |③-④-|
口口⑧⑦ |⑤-⑥-|
口口口口 |⑦-⑧-|
95
口口②② |①---|
口口口口 |--②-|
口③③口 |----|
①①口口 |③---|
96
①②③口 |①-②-|
口⑥⑤④ |③-④-|
⑦⑧口口 |⑤-⑥-|
口口口口 |⑦-⑧-|
97
②②口口 |①---|
口口口口 |--②-|
口③③口 |----|
口口①① |③---|
98
口口口① |①-②-|
⑥⑧口② |③-④-|
⑤口⑦③ |⑤-⑥-|
④口口口 |⑦-⑧-|
99
口口①① |①---|
口口口口 |--②-|
口③③口 |----|
②②口口 |③---|
100
①口口口 |①-②-|
②口⑧⑥ |③-④-|
③⑦口⑤ |⑤-⑥-|
口口口④ |⑦-⑧-|
101
①①口口 |①---|
口口口口 |--②-|
口③③口 |----|
口口②② |③---|
102
口口口① |①-②-|
⑥⑧口② |③-④-|
⑤口⑦③ |⑤-⑥-|
④口口口 |⑦-⑧-|
103
口口①① |①---|
口口口口 |--②-|
口③③口 |----|
②②口口 |③---|
104
①口口口 |①-②-|
②口⑧⑥ |③-④-|
③⑦口⑤ |⑤-⑥-|
口口口④ |⑦-⑧-|
105
口①①口 |①---|
口口口口 |--②-|
③口口② |----|
③口口② |③---|
106
口①口① |----|
口口①口 |---①|
口①口① |----|
口口口口 |----|

不確定度: 0

最終更新:2016年07月27日 22:45