最終鬼畜妹フランドール・S
ビートまりお(COOL&CREATE)

EXTREME

Level: 9
BPM: 200
Notes: 818

1
口口口口 |----|
口口口口 |----|
口口口口 |----|
口口口口 |----|
2
口口口口 |①---|
口①口① |----|
①口①口 |----|
①口①口 |----|
3
口口口口 |----|
口口口口 |----|
口口口口 |----|
口口口口 |----|
4
口口口口 |①---|
①口①口 |----|
口①口① |----|
口①口① |----|
5
口口口口 |----|
口口口口 |----|
口口口口 |----|
口口口口 |----|
6
①口①口 |①---|
①口①口 |----|
口①口① |----|
口口口口 |----|
7
口口口口 |----|
口口口口 |----|
口口口口 |----|
口口口口 |----|
8
口①口① |①---|
口①口① |----|
①口①口 |----|
口口口口 |----|
9
口②①口 |①---|
①口口② |----|
②口口① |②---|
口①②口 |----|
10
口口口口 |①---|
⑤④②口 |②---|
口③口口 |③---|
口口口① |④-⑤-|
11
②①口口 |--①-|
口口口口 |②---|
④口口口 |③---|
口③口口 |④---|
12
口口口口 |①---|
⑤④②口 |②---|
口③口口 |③---|
口口口① |④-⑤-|
13
②①口口 |--①-|
口口口口 |②---|
口口口口 |③---|
③③口口 |----|
14
口口口① |①---|
⑤④②口 |②---|
口③①口 |③---|
口口口口 |④-⑤-|
15
③②口口 |①-②-|
口口口① |③---|
⑤口口口 |④---|
口④①口 |⑤---|
16
口口口口 |①---|
口口②① |②---|
口口口口
口口①口

口口③口
⑤④口⑤
口③口③ |③---|
口口口口 |④-⑤-|
17
③②口① |①-②-|
口口口口 |③---|
口口①口
口口口口

口口口口
⑧⑦⑥⑤
⑫⑪⑩⑨ |④---|
④④口口 |⑤⑥⑦⑧⑨⑩⑪⑫|
18
口口②口 |①---|
⑤④口口 |②---|
口口口口 |③---|
口③口① |④-⑤-|
19
②①口口 |--①-|
④口口口 |②---|
口口口口 |③---|
口③口口 |④---|
20
⑤②口⑥ |①-②-|
⑦④口⑧ |③-④-|
②口⑥③ |⑤-⑥-|
④口⑧① |⑦-⑧-|
21
口口②⑥ |①-②-|
⑦⑤④⑧ |③-④-|
①③⑥② |⑤-⑥-|
口口⑧④ |⑦-⑧-|
22
口口②口 |①---|
⑤④口口 |②---|
口口口① |③---|
口③口口 |④-⑤-|
23
②①口口 |--①-|
④口口口 |②---|
口口口口 |③---|
口③口口 |④---|
24
⑤②口⑥ |①-②-|
⑦④口⑧ |③-④-|
②口⑥③ |⑤-⑥-|
④口⑧① |⑦-⑧-|
25
口口④口 |①-②-|
口③口口 |③-④-|
①口口④
口口口②

⑤⑤口口
口口⑥口
⑪口⑦口 |⑤-⑥⑦|
⑩⑨⑧口 |⑧⑨⑩⑪|
26
④口⑤② |①---|
口口口口 |②---|
口①口口 |③---|
口口口③ |④-⑤-|
27
口⑤口口 |--①-|
口口③口 |②-③-|
口②口口 |④---|
①口口④ |⑤---|
28
口⑥⑨④ |①-②-|
口②⑦口 |③-④-|
口⑧③口 |⑤-⑥⑦|
①口口⑤ |⑧-⑨-|
29
口⑤口⑤ |①-②-|
①口口③ |③-④-|
⑤口⑤口 |⑤---|
②口口④ |----|
30
④口⑤口 |①---|
①口②口 |②---|
口口口口 |③---|
口①口③ |④-⑤-|
31
口⑥⑥口 |①-②-|
口口④口 |③-④-|
口③①① |⑤---|
②口口⑤ |⑥---|
32
口⑥⑨④ |①-②-|
口②⑦口 |③-④-|
口⑧③口 |⑤-⑥⑦|
①①⑤⑤ |⑧-⑨-|
33
①口口④ |①-②-|
⑦口口⑥ |③-④-|
③口口② |⑤-⑥-|
⑤口口⑧ |⑦-⑧-|
34
③⑦②⑧ |①-②-|
口③口口 |③-④-|
口①①④ |⑤-⑥-|
⑤⑤⑥口 |⑦-⑧-|
35
口口口口 |①-②-|
口④口口 |③-④-|
①①③口
口口口②

口口⑦口
口口口口
⑧口口⑥ |⑤-⑥-|
⑤口口口 |⑦-⑧-|
36
④⑨⑥口 |①-②-|
口⑦②口 |③-④-|
口③⑧口 |⑤-⑥⑦|
⑤口口① |⑧-⑨-|
37
⑤口⑤口 |①-②-|
③口口① |③-④-|
口⑤口⑤ |⑤---|
④口口② |----|
38
⑦口⑧③ |①-②-|
②口口⑥ |③-④-|
口口口④ |⑤-⑥-|
⑤⑤①① |⑦-⑧-|
39
口口口口 |①-②-|
口④口口 |③-④-|
①①③口
口口口②

口⑦⑦口
口口口口
⑧口口⑥ |⑤-⑥-|
⑤口口口 |⑦-⑧-|
40
②⑫⑪① |①②③④|
⑭⑥⑤⑬ |⑤⑥⑦⑧|
⑯④③⑮ |⑨⑩⑪⑫|
⑧⑩⑨⑦ |⑬⑭⑮⑯|
41
⑦口⑤口 |①-②-|
口④②口 |③-④-|
口③①口 |⑤-⑥-|
口⑧口⑥ |⑦-⑧-|
42
⑧③口⑥ |①-②-|
②口⑤口 |③-④-|
口口口口 |⑤-⑥-|
①口④⑦ |⑦-⑧-|
43
口②①③ |①---|
口口口口 |--②-|
口口口口 |----|
③①②口 |③---|
44
⑥口③⑧ |①-②-|
口⑤口② |③-④-|
口口口口 |⑤-⑥-|
⑦④口① |⑦-⑧-|
45
③①②口 |①---|
口口口口 |--②-|
口口口口 |----|
口②①③ |③---|
46
⑧③口⑥ |①-②-|
②口⑤口 |③-④-|
口口口口 |⑤-⑥-|
①口④⑦ |⑦-⑧-|
47
口②①③ |①---|
口口口口 |--②-|
口口口口 |----|
③①②口 |③---|
48
⑥口③⑧ |①-②-|
口⑤口② |③-④-|
口口口口 |⑤-⑥-|
⑦④口① |⑦-⑧-|
49
③①②口 |①---|
口口口口 |--②-|
口口口口 |----|
口②①③ |③---|
50
⑧③口⑥ |①-②-|
②口⑤口 |③-④-|
口口口口 |⑤-⑥-|
①口④⑦ |⑦-⑧-|
51
口②①③ |①---|
口口口口 |--②-|
口口口口 |----|
③①②口 |③---|
52
⑥口③⑧ |①-②-|
口⑤口② |③-④-|
口口口口 |⑤-⑥-|
⑦④口① |⑦-⑧-|
53
③①②口 |①---|
口口口口 |--②-|
口口口口 |----|
口②①③ |③---|
54
⑧③口⑥ |①-②-|
②口⑤口 |③-④-|
口口口口 |⑤-⑥-|
①口④⑦ |⑦-⑧-|
55
口②①③ |①---|
口口口口 |--②-|
口口口口 |----|
③①②口 |③---|
56
⑥口③⑧ |①-②-|
口⑤口② |③-④-|
口口口口 |⑤-⑥-|
⑦④口① |⑦-⑧-|
57
③①②口 |①---|
①口③② |--②-|
②③口① |----|
口②①③ |③---|
58
口①②③ |①---|
口口口④ |②---|
口口口口 |③---|
口口口口 |④---|
59
口口口口 |①---|
口口口口 |②---|
口口口① |③---|
口④③② |④---|
60
④口口口 |①---|
③口口口 |②---|
②口口口 |③---|
①口口口 |④---|
61
口①②③ |①---|
口口口④ |②---|
口口口口 |③---|
口口口口 |④---|
62
口口口口 |①---|
口①口口 |②---|
口口口① |③---|
口④③② |④---|
63
④口口口 |①---|
③口①口 |②---|
②口口口 |③---|
①口口口 |④---|
64
口①②③ |①-②-|
口口口④ |③-④-|
口⑤①⑤ |⑤-⑥-|
口⑧⑦⑥ |⑦-⑧-|
65
④⑤⑥⑦ |①-②-|
③①⑤⑧ |③-④-|
②口口口 |⑤-⑥-|
①口口口 |⑦-⑧-|
66
④口⑤口 |①---|
口②口口 |②---|
口口口① |③---|
口口口③ |④-⑤-|
67
口⑤口口 |--①-|
口口③口 |②-③-|
口②口口 |④---|
①口口④ |⑤---|
68
口⑥⑨④ |①-②-|
口②⑦口 |③-④-|
口⑧③口 |⑤-⑥⑦|
①口口⑤ |⑧-⑨-|
69
口⑤口⑤ |①-②-|
①口口③ |③-④-|
⑤口⑤口 |⑤---|
②口口④ |----|
70
②口②口 |①---|
口口口口 |②---|
口①口①
①口①口

口④口④
口口口口
口口口口 |③---|
口③⑤③ |④-⑤-|
71
口口⑥口 |①-②-|
①①④口 |③-④-|
口③①① |⑤---|
②口口⑤ |⑥---|
72
②⑭⑬① |①②③④|
④⑥⑤③ |⑤⑥⑦⑧|
⑯⑧⑦⑮ |⑨⑩⑪⑫|
⑩⑫⑪⑨ |⑬⑭⑮⑯|
73
③口口① |①-②-|
④⑧⑥② |③-④-|
口口口口 |⑤-⑥-|
⑦口口⑤ |⑦-⑧-|
74
②⑧③口 |①-②-|
⑥口口⑦ |③-④-|
口①①⑤ |⑤-⑥-|
口④⑦口 |⑦-⑧-|
75
口口口口 |①-②-|
口④口口 |③-④-|
①①③口
口口口②

口口⑦⑦
口口口口
⑧口口口 |⑤-⑥-|
⑤口⑥口 |⑦-⑧-|
76
④⑨⑥口 |①-②-|
口⑦②口 |③-④-|
口③⑧口 |⑤-⑥⑦|
⑤口口① |⑧-⑨-|
77
③⑧⑤① |①-②-|
⑤口口⑥ |③-④-|
口⑦口⑤ |⑤-⑥-|
④⑤口② |⑦-⑧-|
78
⑦口⑧③ |①-②-|
口④①⑤ |③-④-|
②口③⑧ |⑤-⑥-|
⑥口⑤① |⑦-⑧-|
79
口口⑦口 |①-②-|
口④口⑦ |③-④-|
①①③口 |⑤-⑥-|
⑤⑧⑥② |⑦-⑧-|
80
④口⑥口 |①-②-|
⑨⑦②口 |③-④-|
口③⑧口 |⑤-⑥⑦|
⑤口口① |⑧-⑨-|
81
口①口⑤ |①-②-|
口⑧③① |③-④-|
①④⑦② |⑤-⑥-|
⑥口①口 |⑦-⑧-|
82
口④①口 |①-②-|
口口③口 |③-④-|
②口口①
口口口③

⑦口⑧口
口口口⑤
口口口⑧ |⑤-⑥-|
口⑥⑤口 |⑦-⑧-|
83
口口口口 |①-②-|
口④口口 |③-④-|
①①③口
口口口②

口口⑦⑦
口口口口
⑧口口口 |⑤-⑥-|
⑤口⑥口 |⑦-⑧-|
84
④⑨⑥口 |①-②-|
口⑦②口 |③-④-|
口③⑧口 |⑤-⑥⑦|
⑤口口① |⑧-⑨-|
85
③⑧⑤① |①-②-|
⑤口口⑦ |③-④-|
口⑥口⑤ |⑤-⑥-|
④⑤口② |⑦-⑧-|
86
⑦口⑤③ |①-②-|
口④①⑧ |③-④-|
②口③⑤ |⑤-⑥-|
口⑥⑧① |⑦-⑧-|
87
口⑦口口 |①-②-|
⑦④口口 |③-④-|
①①③⑥ |⑤-⑥-|
⑤⑧口② |⑦-⑧-|
88
④口⑥口 |①-②-|
⑨⑦②口 |③-④-|
口③⑧口 |⑤-⑥⑦|
⑤口口① |⑧-⑨-|
89
⑥①口口 |①-②-|
口⑧③① |③-④-|
①④⑦② |⑤-⑥-|
口口①⑤ |⑦-⑧-|
90
⑧③口⑥ |①-②-|
②口⑤口 |③-④-|
口口口口 |⑤-⑥-|
①口④⑦ |⑦-⑧-|
91
口②①③ |①---|
口口口口 |--②-|
口口口口 |----|
③①②口 |③---|
92
⑥口③⑧ |①-②-|
口⑤口② |③-④-|
口口口口 |⑤-⑥-|
⑦④口① |⑦-⑧-|
93
③①②口 |①---|
口口口口 |--②-|
口口口口 |----|
口②①③ |③---|
94
⑧③口⑥ |①-②-|
②口⑤口 |③-④-|
口口口口 |⑤-⑥-|
①口④⑦ |⑦-⑧-|
95
口②①③ |①---|
口口口口 |--②-|
口口口口 |----|
③①②口 |③---|
96
⑥口③⑧ |①-②-|
口⑤口② |③-④-|
口口口口 |⑤-⑥-|
⑦④口① |⑦-⑧-|
97
③①②口 |①---|
口口口口 |--②-|
口口口口 |----|
口②①③ |③---|
98
⑧③口⑥ |①-②-|
②口⑤口 |③-④-|
口口口口 |⑤-⑥-|
①口④⑦ |⑦-⑧-|
99
口②①③ |①---|
口口口口 |--②-|
口口口口 |----|
③①②口 |③---|
100
⑥口③⑧ |①-②-|
口⑤口② |③-④-|
口口口口 |⑤-⑥-|
⑦④口① |⑦-⑧-|
101
③①②口 |①---|
口口口口 |--②-|
口口口口 |----|
口②①③ |③---|
102
⑧③口⑥ |①-②-|
②口⑤口 |③-④-|
口口口口 |⑤-⑥-|
①口④⑦ |⑦-⑧-|
103
口②①③ |①---|
口口口口 |--②-|
口口口口 |----|
③①②口 |③---|
104
⑥口③⑧ |①-②-|
口⑤口② |③-④-|
口口口口 |⑤-⑥-|
⑦④口① |⑦-⑧-|
105
③①②口 |①---|
①口③② |--②-|
②③口① |----|
口②①③ |③---|
106
口①①口 |----|
口①口口 |---①|
口口①口 |----|
口①①口 |----|

不確定度: 0

最終更新:2016年07月27日 22:45