魔理沙は大変なものを盗んでいきました
ARM+夕野ヨシミ (IOSYS) feat. 藤咲かりん

EXTREME

Level: 9
BPM: 170
Notes: 785

1
口口口口 |----|
口口口口 |----|
口口口口 |----|
口口口口 |----|
2
口口⑤口 |①--②|
口④①⑤ |--③-|
口口②口 |④---|
口口③口 |⑤---|
3
口口口口 |①--②|
⑤④①口 |--③-|
⑥口②口 |④-⑤-|
口口③口 |⑥---|
4
口口⑤口 |①--②|
口④①⑤ |--③-|
口口②口 |④---|
口口③口 |⑤---|
5
④④口口 |①--②|
④④①口 |--③-|
口口②口 |④---|
口口③口 |----|
6
口口⑤口 |①--②|
口④①⑤ |--③-|
口口②口 |④---|
口口③口 |⑤---|
7
口口口口 |①--②|
⑤④①口 |--③-|
⑥口②口 |④-⑤-|
口口③口 |⑥---|
8
口口⑤口 |①--②|
口④①⑤ |--③-|
口口②口 |④---|
口口③口 |⑤---|
9
口⑦⑥② |①---|
①③②口 |②---|
口①④② |③④⑤⑥|
①⑤口口 |⑦---|
10
口口口口 |①-②-|
①口口④ |③-④-|
⑧②⑤口 |⑤-⑥-|
⑦⑥③口 |⑦-⑧-|
11
⑦⑦⑦口 |①-②-|
①⑥⑥④ |③-④-|
口口⑤③ |⑤-⑥-|
口口口② |⑦---|
12
口口口口 |①-②-|
①口口④ |③-④-|
⑧②⑤口 |⑤-⑥-|
⑦⑥③口 |⑦-⑧-|
13
口口口口 |①-②-|
①口⑤④ |③-④-|
口⑥⑥③ |⑤-⑥-|
⑦⑦⑦② |⑦---|
14
③③③口 |①-②-|
②②口④ |③-④-|
①口口口
口口口口

口口口口
⑧⑧口口
⑦口⑤⑤ |⑤-⑥-|
口⑥⑥⑥ |⑦-⑧-|
15
①①①口 |①-②-|
口口口② |③-④-|
口口③③
口④④④

⑦⑦⑦口
⑥口⑥口
口⑤口口 |⑤-⑥-|
口口口口 |⑦---|
16
④口口③ |①---|
口②⑤① |②---|
①⑥②口 |③-④-|
口口⑦口 |⑤⑥⑦-|
17
②④③① |----|
②④③① |----|
②④③① |①-②-|
②④③① |③-④-|
18
③口口口 |----|
口口②口 |--①-|
①⑤口口 |②-③-|
口口口④ |④-⑤-|
19
⑦口⑦口 |①-②-|
⑥②口① |③-④-|
⑤口口③ |⑤-⑥-|
口④口口 |⑦---|
20
口口口③ |①-②-|
⑥②⑦口 |③-④-|
⑧口⑤① |⑤-⑥-|
④口口口 |⑦-⑧-|
21
⑦②⑦口 |①-②-|
口口⑥③ |③-④-|
口④⑤口 |⑤-⑥-|
口口①口 |⑦---|
22
口口口③ |①-②-|
⑥②⑦口 |③-④-|
⑧口⑤① |⑤-⑥-|
④口口口 |⑦-⑧-|
23
⑦②⑦口 |①-②-|
口口⑥③ |③-④-|
口④⑤口 |⑤-⑥-|
口口①口 |⑦---|
24
口口口口 |①②③④|
⑥口口⑤ |⑤⑥⑦⑧|
②口口①
⑧④③⑦

⑭⑩⑨⑬
口口口口
口⑫⑪口 |⑨⑩⑪⑫|
口⑯⑮口 |⑬⑭⑮⑯|
25
口口口口 |①②③④|
口②①口 |⑤⑥⑦⑧|
④⑧⑦③
⑥口口⑤

⑫⑪⑩⑨
⑯⑮⑭⑬
口口口口 |⑨⑩⑪⑫|
口口口口 |⑬⑭⑮⑯|
26
口④口口 |--①-|
口口口③ |--②-|
口②口口 |--③-|
口口口① |--④-|
27
口口口口 |--①-|
口口①口 |--②-|
②④口口 |--③-|
口口③口 |--④-|
28
口口口① |--①-|
口②口口 |--②-|
口口口③ |--③-|
口④口口 |--④-|
29
口口③口 |--①-|
②口口④ |--②-|
口口①口 |--③-|
口口口口 |--④-|
30
口口⑦⑧ |①--②|
④③⑧⑦ |--③-|
⑤口②口 |④-⑤-|
⑥口口① |⑥⑦-⑧|
31
口口⑦⑧ |①--②|
④③⑧⑦ |--③-|
⑤口②口 |④-⑤-|
⑥口口① |⑥⑦-⑧|
32
口口⑦⑧ |①--②|
④③⑧⑦ |--③-|
⑤口②口 |④-⑤-|
⑥口口① |⑥⑦-⑧|
33
⑪⑤⑩⑪ |①②③④|
⑤口口⑩ |⑤-⑥⑦|
⑦①②⑥ |⑧⑨⑩-|
⑨③④⑧ |⑪---|
34
口口口口 |①-②-|
⑤①③⑦ |③-④-|
⑥②④⑧ |⑤-⑥-|
⑤①③⑦ |⑦-⑧-|
35
口口口口 |①-②-|
⑤①③⑦ |③-④-|
⑥②④⑧ |⑤-⑥-|
⑤①③⑦ |⑦-⑧-|
36
⑤①③⑦ |①-②-|
⑥②④⑧ |③-④-|
⑤①③⑦ |⑤-⑥-|
口口口口 |⑦-⑧-|
37
口①③口 |①-②-|
口②④口 |③-④-|
口①③口 |⑤---|
口⑤⑤口 |----|
38
口口口口 |①-②-|
①⑤③⑦ |③-④-|
②⑥④⑧ |⑤-⑥-|
①⑤③⑦ |⑦-⑧-|
39
口口口口 |①-②-|
①⑤③⑦ |③-④-|
②⑥④⑧ |⑤-⑥-|
①⑤③⑦ |⑦-⑧-|
40
①⑤③⑦ |①-②-|
②⑥④⑧ |③-④-|
①⑤③⑦ |⑤-⑥-|
口口口口 |⑦-⑧-|
41
①口③口 |①-②-|
②口④口 |③-④-|
①口③口 |⑤---|
口⑤⑤口 |----|
42
①②③口 |①②③-|
口⑥⑤④ |④⑤⑥-|
⑦⑧⑨口 |⑦⑧⑨-|
口⑫⑪⑩ |⑩⑪⑫-|
43
①②③口 |①②③-|
口⑥⑤④ |④⑤⑥-|
⑦⑧⑨口 |⑦⑧⑨-|
口⑫⑪⑩ |⑩⑪⑫-|
44
口③②① |①②③-|
④⑤⑥口 |④⑤⑥-|
口⑨⑧⑦ |⑦⑧⑨-|
⑩⑪⑫口 |⑩⑪⑫-|
45
口③②① |①②③-|
④⑤⑥口 |④⑤⑥-|
口⑨⑧⑦ |⑦⑧⑨-|
⑩⑪⑫口 |⑩⑪⑫-|
46
口①③口 |①-②-|
②⑤⑦④ |③-④-|
①⑥⑧③ |⑤-⑥-|
⑤口口⑦ |⑦-⑧-|
47
②⑤③⑧ |①-②-|
⑤口口③ |③-④-|
⑦口口① |⑤-⑥-|
④⑦①⑥ |⑦-⑧-|
48
口口口口 |①---|
口②口口 |②---|
口①口④ |③---|
口口③口 |④---|
49
口②②② |①---|
①口④口 |②---|
⑤③口口 |③---|
口口口口 |--④⑤|
50
口口口口 |①---|
口②口口 |----|
口口口③ |----|
口口①口 |--②③|
51
口口口口 |①---|
口口口口 |----|
口②②口 |②---|
口①口口 |----|
52
⑤⑤①口 |①---|
③④口① |②---|
②②口口 |③-④-|
④③口口 |--⑤-|
53
口口口口 |--①-|
口口①② |②---|
口口口口
口口②①

口口③③
口口⑤口
④口⑤口 |③---|
口④口口 |④-⑤-|
54
口①②口 |①---|
①口③② |----|
口口口③ |②---|
口口口口 |③---|
55
口口口口 |①---|
口口口口 |--②-|
口口①口
口②②①

口口口口
口③口③
③口③口 |----|
口口口口 |③---|
56
口②②口 |①---|
①③①口 |--②-|
③①口① |----|
口口口口 |③---|
57
口口口口 |①---|
口口①口 |----|
③①口② |②--③|
④③②④ |--④-|
58
口①①口 |①---|
口口②口 |----|
口③口口 |----|
口口口口 |--②③|
59
口口口口 |①---|
口口口口 |----|
②口口口 |②---|
口②①口 |----|
60
⑤⑤①① |①---|
③④口① |②---|
②②口口 |③-④-|
④③口口 |--⑤-|
61
⑤口口口 |--①-|
口⑤①① |②---|
②②③④ |③--④|
口口④③ |--⑤-|
62
口口口口 |----|
口口口口 |--①-|
口①①口 |----|
②口口② |②---|
63
口①①口 |①---|
口口②口 |--②-|
口口口② |----|
口③③口 |③---|
64
口口口口 |①---|
①②口② |--②-|
②①②口 |----|
口口口口 |----|
65
⑯⑮⑭⑬ |①②③④|
⑫⑪⑩⑨ |⑤⑥⑦⑧|
⑧⑦⑥⑤ |⑨⑩⑪⑫|
④③②① |⑬⑭⑮⑯|
66
口④口④ |①---|
③口口口 |②---|
⑤②③① |③-④-|
②⑤①口 |--⑤-|
67
⑦⑥①口 |①-②③|
⑤④②① |④⑤⑥⑦|
口③口口
口口口口

口口⑬⑫
口口口⑬
口口口口 |⑧⑨⑩⑪|
⑪⑩⑨⑧ |⑫-⑬-|
68
③口口④ |①---|
⑤①①⑤ |②---|
⑤②②⑤ |③--④|
④口口③ |--⑤-|
69
④口②口 |①-②-|
口①⑤口 |③④⑤⑥|
口⑥①口
口②口③

口⑧⑬⑨
⑫口口口
口口口⑪ |⑦⑧⑨⑩|
⑩⑭⑦口 |⑪⑫⑬⑭|
70
②口口口 |①---|
口口④① |②---|
②③⑤④ |③-④-|
③口⑤① |--⑤-|
71
④②②④ |--①-|
①①口口 |--②-|
口口口口 |③---|
③口口③ |④---|
72
口⑤⑤口 |①---|
②①②① |②---|
①②①② |③--④|
③④③④ |--⑤-|
73
①口口② |①-②-|
口口②口 |③-④-|
口④口口
④口③口

⑧口口口
⑤⑧口⑦
口口⑥口 |⑤-⑥-|
口口口⑥ |⑦-⑧-|
74
④口口④ |①---|
③口口口 |②---|
⑤②③① |③--④|
②⑤①口 |--⑤-|
75
⑦⑥①口 |①-②③|
⑤④②① |④⑤⑥⑦|
口③口口
口口口口

口口⑬⑫
口口口⑬
口口口口 |⑧⑨⑩⑪|
⑪⑩⑨⑧ |⑫-⑬-|
76
③口口④ |①---|
⑤①①⑤ |②---|
⑤②②⑤ |③--④|
④口口③ |--⑤-|
77
④口②口 |①-②-|
口①⑤口 |③④⑤⑥|
口⑥①口
口②口③

口⑧⑬⑨
⑫口口口
口口口⑪ |⑦⑧⑨⑩|
⑩⑭⑦口 |⑪⑫⑬⑭|
78
②口⑤口 |①---|
口③口① |②---|
②④口⑤ |③--④|
③口④① |--⑤-|
79
④口口④ |--①-|
②口①③ |--②-|
口口①口 |③---|
②口口③ |④---|
80
口口口口 |①---|
②口②口 |----|
口②口② |②---|
口①①口 |----|
81
口②②口 |①---|
口①口① |--②-|
①口①口
口口口口

口口口④
③⑤口口
口⑤口④ |③--④|
③口口口 |--⑤-|
82
④③②口 |①-②③|
⑤口①口 |④⑤⑥⑦|
⑥口①口
⑦口口口

口口口口
口⑭⑬⑫
口⑮口⑪ |⑧⑨⑩⑪|
口⑧⑨⑩ |⑫⑬⑭⑮|
83
口②③④ |①-②③|
⑤口口口 |④-⑤⑥|
⑥口①口 |⑦-⑧⑨|
⑦⑩⑨⑧ |⑩---|
84
①①①① |①---|
口口口口 |----|
口口口口 |----|
口口口口 |----|

不確定度: 0

最終更新:2016年07月27日 22:36