Slluuddggee
Hommarju

BASIC

Level: 4
BPM: 83-174
Notes: 373

BPM: 83
1
口口口口 |①---|
口口口口
口口口口
①口口口

BPM: 89
口口口口
口口口口 |②---|
口口口口
口②口口

BPM: 98
口口口口
口口口口
口口口口 |③---|
口口③口

BPM: 105
口口口口
口口口口
口口口口
口口口④ |④---|

BPM: 114
2
口口口口 |①---|
口口口口
口口口①
口口口口

BPM: 121
口口口口
口口口口 |②---|
口口②口
口口口口

BPM: 125
口口口口
口口口口
口③口口 |③---|
口口口口

BPM: 131
口口口口
口口口口
④口口口
口口口口 |④---|

BPM: 136
3
口口口口 |①---|
①口口口
口口口口
口口口口

BPM: 138
口口口口
口②口口 |②---|
口口口口
口口口口

BPM: 141
口口口口
口口③口
口口口口 |③---|
口口口口

BPM: 143
口口口口
口口口④
口口口口
口口口口 |④---|

BPM: 147
4
口口口① |①---|
口口口口
口口口口
口口口口

BPM: 150
④③②口
口口口口 |②---|
口口口口 |③---|
口口口口 |④---|

BPM: 155
5
口口口口 |①---|
①口口口
口口口口
口口口口

BPM: 163
口口口口
口②③④ |②---|
口口口口 |③---|
口口口口 |④---|

BPM: 167
6
口口口口 |①---|
口口口口 |②---|
④③②① |③---|
口口口口 |④---|

BPM: 170
7
口口口口 |①---|
口口口口 |②---|
口口口口 |③---|
①②③④ |④---|

BPM: 174
8
口口口口 |①---|
口口口口 |②---|
④③②① |③---|
口口口口 |④---|
9
④口②口 |①---|
③口①口 |②---|
口口口口 |③---|
口口口口 |④---|
10
口④口② |①---|
口③口① |②---|
口口口口 |③---|
口口口口 |④---|
11
④口②口 |①---|
③口①口 |②---|
口口口口 |③---|
口口口口 |④---|
12
口④口② |①---|
口③口① |②---|
口口口口 |③---|
口口口口 |④---|
13
口口口口 |①---|
口口口口 |----|
口①①口 |②---|
口②②口 |----|
14
口口口口 |①---|
口口口口 |----|
②口口② |②---|
①口口① |----|
15
口口④口 |①---|
口③口口 |②---|
口口②口 |③---|
口①口口 |④---|
16
①口口① |①---|
口口口口 |----|
口口口口 |----|
口口口口 |----|
17
口口口口 |①---|
口口口口 |②---|
口②①口 |③---|
口④③口 |④---|
18
口口口口 |①---|
④口②口 |②---|
口③口① |③---|
口口口口 |④---|
19
口②①口 |①---|
口④③口 |②---|
口口口口 |③---|
口口口口 |④---|
20
口口口口 |①---|
口③口① |②---|
④口②口 |③---|
口口口口 |④---|
21
口口口口 |①---|
口口口口 |②---|
口④③口 |③---|
口②①口 |④---|
22
口口口口 |①---|
④口②口 |②---|
口③口① |③---|
口口口口 |④---|
23
口②①口 |①---|
口④③口 |②---|
口口口口 |③---|
口口口口 |④---|
24
口口口口 |①---|
口③口① |②---|
④口②口 |③---|
口口口口 |④---|
25
①①①① |①---|
②②②② |----|
口口口口 |②---|
口口口口 |----|
26
口口口口 |①---|
口口口口 |----|
①①①① |②---|
②②②② |----|
27
口口口口 |①---|
④②③① |②---|
④②③① |③---|
口口口口 |④---|
28
口口口口 |①---|
口口口① |----|
口口口① |----|
口②②口 |②---|
29
口口口口 |①---|
口口口口 |----|
口①①口 |②---|
口②②口 |----|
30
口口口口 |①---|
口口口口 |----|
②口口② |②---|
①口口① |----|
31
口口④口 |①---|
口③口口 |②---|
口口②口 |③---|
口①口口 |④---|
32
①口口① |①---|
口口口口 |----|
口口口口 |----|
口口口口 |----|
33
口口口口 |①---|
③口口② |---②|
口③②口 |----|
口①①口 |-③--|
34
②口口① |---①|
口②①口 |----|
口口口口 |-②--|
口口口口 |----|
35
口口口口 |①---|
③口口② |---②|
口③②口 |----|
口①①口 |-③--|
36
②口口① |---①|
口②①口 |----|
口口口口 |-②--|
口口口口 |----|
37
口口口口 |①---|
③口口② |---②|
口③②口 |----|
口①①口 |-③--|
38
②口口① |---①|
口②①口 |----|
口口口口 |-②--|
口口口口 |----|
39
口口口口 |①---|
③口口② |---②|
口③②口 |----|
口①①口 |-③--|
40
②口口① |---①|
口②①口 |----|
口口口口 |-②--|
口口口口 |----|

BPM: 83
41
口口口口 |①---|
口口口口
口口口口
口①①口

BPM: 89
口口口口
口口口口 |②---|
②口口口
口口口口

BPM: 98
口口口口
口口口口
口③口口 |③---|
口口口口

BPM: 105
口口口口
口口口口
口口④口
口口口口 |④---|

BPM: 114
42
口口口口 |①---|
口口口口
口口口①
口口口口

BPM: 121
口口口口
口口口② |②---|
口口口口
口口口口

BPM: 125
口口口口
口口③口
口口口口 |③---|
口口口口

BPM: 131
口口口口
口④口口
口口口口
口口口口 |④---|

BPM: 136
43
口口口口 |①---|
口口口口
口①①口
口口口口

BPM: 138
口口口口
②口口口 |②---|
口口口口
口口口口

BPM: 141
③口口口
口口口口
口口口口 |③---|
口口口口

BPM: 143
口④口口
口口口口
口口口口
口口口口 |④---|

BPM: 147
44
口口①口 |①---|
口口口口
口口口口
口口口口

BPM: 150
口口口②
口口④③ |②---|
口口口口 |③---|
口口口口 |④---|

BPM: 155
45
口口口口 |①---|
口口口口
口①①口
口口口口

BPM: 163
口口口口
③②口口 |②---|
④口口口 |③---|
口口口口 |④---|

BPM: 167
46
口口口口 |①---|
口口口口 |②---|
口①②③ |③---|
口口口④ |④---|

BPM: 170
47
口口口口 |①---|
口口口口 |②---|
口①①口 |③---|
④③②口 |④---|

BPM: 174
48
口口口口 |①---|
口口口口 |②---|
①②③④ |③---|
口口口口 |④---|
49
口①①口 |①---|
口②②口 |②---|
口③③口 |③---|
口口口口 |----|
50
①口口① |①---|
②口口② |②---|
③口口③ |③---|
口口口口 |----|
51
口①①口 |①---|
口②②口 |②---|
口③③口 |③---|
口口口口 |----|
52
①口口① |①---|
②口口② |②---|
③口口③ |③---|
④口口④ |④---|
53
口口口口 |①---|
口口口口 |----|
口①①口 |②---|
口②②口 |----|
54
口口口口 |①---|
口口口口 |----|
②口口② |②---|
①口口① |----|
55
口口④口 |①---|
口③口口 |②---|
口口②口 |③---|
口①口口 |④---|
56
①口口① |①---|
口口口口 |----|
口口口口 |----|
口口口口 |----|
57
④③②① |①---|
口口口① |②---|
口口口口 |③---|
口口口口 |④---|
58
口口口口 |①---|
口②①口 |②---|
口④③口 |③---|
口口口口 |④---|
59
口口口口 |①---|
④③②① |②---|
口口口① |③---|
口口口口 |④---|
60
口口口口 |①---|
④口口③ |②---|
④②①③ |③---|
口口口口 |④---|
61
口口④口 |①---|
口口③口 |②---|
口口②口 |③---|
口①①口 |④---|
62
①口口② |①---|
③口口④ |②---|
口口口口 |③---|
口口口口 |④---|
63
口④口口 |①---|
口③口口 |②---|
口②口口 |③---|
口①①口 |④---|
64
②口口① |①---|
④口口③ |②---|
口口口口 |③---|
口口口口 |④---|
65
口口口口 |①---|
③口口② |②---|
口③②口 |--③-|
口①①口 |----|
66
②③③① |①---|
口②①口 |--②-|
口口口口 |----|
口口口口 |③---|
67
口口口口 |①---|
③口口② |②---|
口③②口 |--③-|
口①①口 |----|
68
②③③① |①---|
口②①口 |--②-|
口口口口 |----|
口口口口 |③---|
69
口口口口 |①---|
口③④② |②---|
口③④② |③---|
口①①口 |④---|
70
口口口口 |①---|
①③④② |②---|
①③④② |③---|
口口口口 |④---|
71
③②②③ |①---|
①④④口 |②---|
①口口口 |③---|
口口口口 |④---|
72
口口口口 |①---|
①口口① |②---|
③②②③ |③---|
口④④口 |④---|
73
口口口② |①---|
口口口口 |----|
口口口口 |②---|
①口口① |----|
74
口②①口 |①---|
口口口口 |----|
口口口口 |②---|
口口口口 |----|
75
①口口口 |①---|
②口口口 |----|
口口口口 |②---|
口口口口 |----|
76
口口口口 |①---|
口①②口 |----|
口口口口 |②---|
口口口口 |----|
77
口口口口 |①---|
口口口口 |----|
口①①口 |②---|
口②②口 |----|
78
口口口口 |①---|
口口口口 |----|
②口口② |②---|
①口口① |----|
79
口口④口 |①---|
口③口口 |②---|
口口②口 |③---|
口①口口 |④---|
80
口①口口 |①---|
口口②口 |②---|
口③口口 |③---|
口口④口 |④---|
81
口口口口 |①---|
口口口口 |----|
①口口① |----|
口口口口 |----|

不確定度: 0

最終更新:2016年04月25日 04:14