Slluuddggee
Hommarju

ADVANCED

Level: 9
BPM: 83-174
Notes: 741

BPM: 83
1
口口口口 |①---|
口口口口
口口口口
①口口口

BPM: 89
口口口②
口口口口 |②---|
口口口口
口口口口

BPM: 98
③口口口
口口口口
口口口口 |③---|
口口口口

BPM: 105
口口口口
口口口口
口口口口
口口口④ |④---|

BPM: 114
2
口口口口 |①---|
口口口口
口口口口
①口口口

BPM: 121
口口口②
口口口口 |②---|
口口口口
口口口口

BPM: 125
③口口口
口口口口
口口口口 |③---|
口口口口

BPM: 131
口口口口
口口口口
口口口口
口口口④ |④---|

BPM: 136
3
口口口口 |①---|
口口口口
口口口口
①口口口

BPM: 138
口口口②
口口口口 |②---|
口口口口
口口口口

BPM: 141
③口口口
口口口口
口口口口 |③---|
口口口口

BPM: 143
口口口口
口口口口
口口口口
口口口④ |④---|

BPM: 147
4
口口口口 |①---|
口口口口
口口口口
①口口口

BPM: 150
③口口②
口口口口 |②---|
口口口口 |③---|
口口口④ |④---|

BPM: 155
5
口口口口 |①---|
口口口口
口口口口
①口①口

BPM: 163
④口口②
口⑦③口 |②-③-|
口⑤口口 |④-⑤-|
口口口⑥ |⑥-⑦-|

BPM: 167
6
⑤口口③ |①-②-|
口⑧④口 |③-④-|
口⑥②口 |⑤-⑥-|
①口口⑦ |⑦-⑧-|

BPM: 170
7
④口口② |①---|
口⑦③口 |②-③-|
口⑤口口 |④-⑤-|
①口①⑥ |⑥-⑦-|

BPM: 174
8
⑤口口③ |①-②-|
口⑧④口 |③-④-|
口⑥②口 |⑤-⑥-|
①口口⑦ |⑦-⑧-|
9
③③⑥⑥ |①-②-|
口口口口 |③---|
⑤⑤②② |④-⑤-|
①①④④ |⑥---|
10
③③⑧⑧ |①-②-|
口⑤⑥口 |③---|
口⑦②② |④-⑤⑥|
①①④④ |⑦-⑧-|
11
③③⑥⑥ |①-②-|
口口口口 |③---|
⑤⑤②② |④-⑤-|
①①④④ |⑥---|
12
③③⑧⑧ |①-②-|
口⑤⑥口 |③---|
口⑦②② |④-⑤⑥|
①①④④ |⑦-⑧-|
13
⑧口口口 |①--②|
①⑥⑦① |③-④-|
④口口⑤ |⑤--⑥|
口②③口 |⑦-⑧-|
14
⑧口口① |①--②|
口⑥⑦口 |③-④-|
④口口⑤ |⑤--⑥|
口②③口 |⑦-⑧-|
15
⑯⑮⑭⑬ |①②③④|
⑫⑪⑩⑨ |⑤⑥⑦⑧|
⑧⑦⑥⑤ |⑨⑩⑪⑫|
④③②① |⑬⑭⑮⑯|
16
口口口口 |①---|
口口口口 |----|
口口口口 |----|
口口口① |----|
17
口口⑦④ |①---|
②⑤口口 |②-③-|
口③口⑥ |④-⑤-|
①①①① |⑥-⑦-|
18
口口口口 |①-②-|
④口口口 |③-④-|
口口③口
①口②口

⑤⑤口口
口口⑥⑥
⑦⑦口口 |⑤-⑥-|
口口⑧⑧ |⑦-⑧-|
19
口④口③ |①---|
⑥口⑤口 |②-③-|
口口口② |④-⑤-|
①①⑦口 |⑥-⑦-|
20
⑦口⑦② |①-②③|
口口口③ |④-⑤-|
口①口④ |⑥---|
⑤⑥口⑥ |⑦---|
21
口口口⑥ |①---|
口⑤①① |②-③-|
①①④⑦ |④-⑤-|
②口口③ |⑥-⑦-|
22
⑤⑤口口 |①-②-|
⑥⑥③④ |③-④-|
①②⑦⑦ |⑤-⑥-|
口口⑧⑧ |⑦-⑧-|
23
④⑤口口 |①---|
⑦口③口 |②-③-|
口②口⑥ |④-⑤-|
①①口口 |⑥-⑦-|
24
⑦⑦口口 |①-②-|
口③⑥口 |③-④-|
⑤口④口 |⑤-⑥-|
口②①口 |⑦---|
25
口口⑦② |①---|
⑥⑥⑧③ |②③④⑤|
口口⑨④ |⑥---|
①①⑩⑤ |⑦⑧⑨⑩|
26
⑥⑥⑦② |①---|
口口⑧③ |②③④⑤|
①①⑨④ |⑥---|
口口⑩⑤ |⑦⑧⑨⑩|
27
④④口口 |①---|
③③口口 |②---|
②②口口 |③---|
①①口口 |④---|
28
⑩口①① |①---|
⑥⑦⑧⑨ |②③④⑤|
②③④⑤ |⑥⑦⑧⑨|
口口口口 |⑩---|
29
⑧口口① |①--②|
口⑥⑦口 |③-④-|
④口口⑤ |⑤--⑥|
口②③口 |⑦-⑧-|
30
⑧口口① |①--②|
口⑥⑦口 |③-④-|
④口口⑤ |⑤--⑥|
口②③口 |⑦-⑧-|
31
⑯⑮⑭⑬ |①②③④|
⑫⑪⑩⑨ |⑤⑥⑦⑧|
⑧⑦⑥⑤ |⑨⑩⑪⑫|
④③②① |⑬⑭⑮⑯|
32
口口口口 |①---|
口口口口 |----|
口口口口 |----|
口口口① |----|
33
口②口③ |①---|
②④③⑤ |②--③|
④口⑤口 |--④-|
①①①① |-⑤--|
34
口③口口 |①--②|
③口口口 |--③-|
口①口②
①口②口

口口口④
口口④口
口⑤⑥口 |-④--|
口口口口 |⑤-⑥-|
35
③口②口 |①---|
⑤③④② |②--③|
口⑤口④ |--④-|
口①①口 |-⑤--|
36
口口③口 |①--②|
口口口③ |--③-|
②口①口
口②口①

④口口口
口④口口
口⑥⑤口 |-④--|
口口口口 |⑤-⑥-|
37
④②③⑤ |①---|
口口口口 |②--③|
②④⑤③ |--④-|
口①①口 |-⑤--|
38
口口口口 |①--②|
③①②④ |--③-|
口⑤⑥口 |-④--|
①③④② |⑤-⑥-|
39
④②③⑤ |①---|
口①①口 |②--③|
②④⑤③ |--④-|
口口口口 |-⑤--|
40
口口口口 |①--②|
③①②④ |--③-|
口⑤⑥口 |-④--|
①③④② |⑤-⑥-|

BPM: 83
41
口口口口 |①---|
口①①口
口口口口
口口口口

BPM: 89
口口③②
口口口口 |②-③-|
口口口口
口口口口

BPM: 98
口口口口
⑤④口口
口口口口 |④-⑤-|
口口口口

BPM: 105
口口口口
口口口口
口口⑦⑥
口口口口 |⑥-⑦-|

BPM: 114
42
口①②口 |①-②-|
口口口口
口口口口
口口口口

BPM: 121
口口口口
口③④口 |③-④-|
口口口口
口口口口

BPM: 125
口口口口
口口口口
口⑤⑥口 |⑤-⑥-|
口口口口

BPM: 131
口口口口
口口口口
口口口口
口⑦⑧口 |⑦-⑧-|

BPM: 136
43
口口口口 |①---|
口口口口
口口口口
①口口①

BPM: 138
口口③②
口口口口 |②-③-|
口口口口
口口口口

BPM: 141
口口口口
⑤④口口
口口口口 |④-⑤-|
口口口口

BPM: 143
口口口口
口口口口
口口⑦⑥
口口口口 |⑥-⑦-|

BPM: 147
44
口①②口 |①-②-|
口口口口
口口口口
口口口口

BPM: 150
口口口口
口③④口 |③-④-|
口⑤⑥口 |⑤-⑥-|
口⑦⑧口 |⑦-⑧-|

BPM: 155
45
口口口口 |①---|
口口口口
口口口口
①口口①

BPM: 163
口口③②
⑤④口口 |②-③-|
口口⑦⑥ |④-⑤-|
口口口口 |⑥-⑦-|

BPM: 167
46
口①②口 |①-②-|
口③④口 |③-④-|
口⑤⑥口 |⑤-⑥-|
口⑦⑧口 |⑦-⑧-|

BPM: 170
47
口口③② |①---|
⑤④口口 |②-③-|
口口⑦⑥ |④-⑤-|
①口口① |⑥-⑦-|

BPM: 174
48
口①②口 |①-②-|
口③④口 |③-④-|
口⑤⑥口 |⑤-⑥-|
口⑦⑧口 |⑦-⑧-|
49
①②③④ |①②③④|
⑤⑥⑦⑧ |⑤⑥⑦⑧|
⑨口口口 |⑨---|
口口口口 |----|
50
口口口口 |①②③④|
口口口⑨ |⑤⑥⑦⑧|
⑧⑦⑥⑤ |⑨---|
④③②① |----|
51
⑤①口⑨ |①②③④|
⑥②口口 |⑤⑥⑦⑧|
⑦③口口 |⑨---|
⑧④口口 |----|
52
⑬⑤①⑨ |①②③④|
口⑥②⑩ |⑤⑥⑦⑧|
口⑦③⑪ |⑨⑩⑪⑫|
口⑧④⑫ |⑬---|
53
⑧①①口 |①--②|
口⑥⑦口 |③-④-|
④口口⑤ |⑤--⑥|
口②③口 |⑦-⑧-|
54
⑧口口① |①--②|
口⑥⑦口 |③-④-|
④口口⑤ |⑤--⑥|
口②③口 |⑦-⑧-|
55
⑯⑮⑭⑬ |①②③④|
⑫⑪⑩⑨ |⑤⑥⑦⑧|
⑧⑦⑥⑤ |⑨⑩⑪⑫|
④③②① |⑬⑭⑮⑯|
56
⑧口口⑦ |①-②-|
⑥口口⑤ |③-④-|
④口口③ |⑤-⑥-|
②口口① |⑦-⑧-|
57
口③②口 |①---|
③①①② |②-③-|
口①①口
口口口口

口口口⑦
口⑥口口
口口口口 |④-⑤-|
口口⑤④ |⑥-⑦-|
58
口口口口 |①-②-|
④口⑧⑥ |③-④-|
口②口③ |⑤-⑥-|
①口⑤⑦ |⑦-⑧-|
59
②口口口 |①---|
口③口口 |②-③-|
口①①口
口口口口

口⑥⑤口
口口口口
口口⑦④ |④-⑤-|
口口口口 |⑥-⑦-|
60
②⑨口口 |①-②③|
③⑧口① |④-⑤-|
④⑦口口 |⑥-⑦-|
口⑥口⑤ |⑧-⑨-|
61
口口口口 |①---|
①口口① |②-③-|
口口口口
③③②②

口口④口
口⑤口⑦
口口⑥口 |④-⑤-|
口口口口 |⑥-⑦-|
62
①⑤⑧口 |①-②-|
口口④口 |③-④-|
口②口⑥ |⑤-⑥-|
⑦口③口 |⑦-⑧-|
63
②口口口 |①---|
口口口口 |②-③-|
③①①口
口口口口

口口口口
口⑤口⑥
口口⑦口 |④-⑤-|
口口④口 |⑥-⑦-|
64
②⑥⑦口 |①-②③|
③⑧⑤口 |④-⑤-|
④口⑨口 |⑥-⑦-|
口①口口 |⑧-⑨-|
65
口③口② |①---|
③⑤②④ |②--③|
⑤口④口 |--④-|
口①①口 |-⑤--|
66
口口口③ |①--②|
口口③口 |--③-|
口②口①
②口①口

口④口口
④口口口
口口口口 |-④--|
口⑥⑤口 |⑤-⑥-|
67
③⑤②② |①---|
口口④④ |②--③|
口①①口 |--④-|
②④口口 |-⑤--|
68
②④⑤⑤ |①--②|
⑥⑥口口 |--③-|
口口①① |-④--|
①③③③ |⑤-⑥-|
69
④⑦⑥口 |①--②|
口口口口 |③-④-|
口口①① |⑤--⑥|
⑤②③⑧ |⑦-⑧-|
70
④⑦⑥① |①--②|
口口口口 |③-④-|
口口口口 |⑤--⑥|
⑤②③⑧ |⑦-⑧-|
71
⑫⑪⑩⑨ |①②③④|
⑧⑦⑥⑤ |⑤⑥⑦⑧|
④③②① |⑨⑩⑪⑫|
⑯⑮⑭⑬ |⑬⑭⑮⑯|
72
⑫⑪⑩⑨ |①②③④|
⑧⑦⑥⑤ |⑤⑥⑦⑧|
④③②① |⑨⑩⑪⑫|
⑯⑮⑭⑬ |⑬⑭⑮⑯|
73
口口口口 |①---|
口②③口 |②---|
口④口① |③---|
口口口口 |④---|
74
口口口口 |①---|
口②③口 |②---|
口④①口 |③---|
口口口口 |④---|
75
口口口口 |①---|
口②③口 |②---|
口④①口 |③---|
口口口口 |④---|
76
口口口口 |①---|
口②③口 |②---|
口④①口 |③---|
口口口口 |④---|
77
⑧口口口 |①--②|
①⑥⑦① |③-④-|
④口口⑤ |⑤--⑥|
口②③口 |⑦-⑧-|
78
⑧口口① |①--②|
口⑥⑦口 |③-④-|
④口口⑤ |⑤--⑥|
口②③口 |⑦-⑧-|
79
⑯⑮⑭⑬ |①②③④|
⑫⑪⑩⑨ |⑤⑥⑦⑧|
⑧⑦⑥⑤ |⑨⑩⑪⑫|
④③②① |⑬⑭⑮⑯|
80
⑯⑫⑪⑮ |①②③④|
⑭⑩⑨⑬ |⑤⑥⑦⑧|
⑧④③⑦ |⑨⑩⑪⑫|
⑥②①⑤ |⑬⑭⑮⑯|
81
口口口口 |①---|
口口口口 |----|
口口口口 |----|
口口①口 |----|

不確定度: 0

最終更新:2016年04月25日 04:12