女々しくて [2]
ゴールデンボンバー

BASIC

Level: 2
BPM: 143
Notes: 170

1
口口口口 |----|
口口口口 |----|
口口口口 |----|
口口口口 |----|
2
口①①口 |①---|
口②②口 |--②-|
口③③口 |----|
口口口口 |③---|
3
口口口口 |----|
口口口口 |----|
口口口口 |①---|
口①①口 |----|
4
口口口 |①---|
口口口
口口口
口口口口

口口口
口口口 |--②-|
口口 |③---|
口口口口 |----|
5
口口口口 |----|
口口口口 |----|
口口口 |----|
口口口口 |--①-|
6
口口口口 |----|
口口口口 |----|
口口口口 |----|
口口口口 |----|
7
口口口口 |----|
口口口口 |----|
口口口口 |----|
口口口口 |----|
8
口①②口 |①---|
口口口口 |----|
口口口口 |②---|
口口口口 |----|
9
口口口口 |①---|
口①②口 |----|
口口口口 |②---|
口口口口 |----|
10
口口口口 |①---|
口口口口 |----|
口①②口 |②---|
口口口口 |----|
11
口口口口 |①---|
口口口口 |----|
②口口② |②---|
①口口① |----|
12
口口口 |--①-|
①②③ |②-③-|
口口口口 |④---|
口口口口

口口口口
口口口
口口口口
口口口口 |--⑤-|
13
口口口口 |--①-|
口口口 |②-③-|
①②③ |④---|
口口口口

口口口口
口口口口
口口口
口口口口 |--⑤-|
14
口口口 |--①-|
①②③ |②-③-|
口口口口 |④---|
口口口口 |----|
15
口口口口 |----|
口口口 |----|
口口口口 |----|
口口口口 |--①-|
16
口口口口 |--①-|
口口口 |②-③-|
③②① |④---|
口口口口

口口口口
口口口口
口口口
口口口口 |--⑤-|
17
口口口 |--①-|
③②① |②-③-|
口口口口 |④---|
口口口口

口口口口
口口口
口口口口
口口口口 |--⑤-|
18
口口口口 |--①-|
口口口 |②-③-|
③②① |④---|
口口口口 |----|
19
口口口口 |----|
口口口口 |----|
口口口 |----|
口口口口 |--①-|
20
口口口口 |----|
①②③口 |①---|
口口口口 |②---|
口口口口 |③---|
21
口口口口 |①---|
口口口① |----|
口口③② |②---|
口口口口 |③---|
22
口②②口 |①---|
口口口口 |----|
口①口口 |②---|
口口口口 |----|
23
口口口口 |①---|
口①①口 |----|
口②②口 |②---|
口口口口 |----|
24
口口口口 |①---|
口口口口 |----|
口口口口 |②---|
②①①② |----|
25
口口口口 |①---|
②口口② |----|
①口口① |②---|
口口口口 |----|
26
|①---|
口口口口 |----|
口口口口
口口口口

口口
口口口口
口口口口 |----|
口口口口 |②---|
27
口口口口 |①---|
①①①① |----|
②②②② |②---|
口口口口 |----|
28
口口口口 |①---|
①②③口 |②---|
口口口口 |③---|
口口口口 |----|
29
口口口口 |①---|
口口口口 |②---|
口③②① |③---|
口口口口 |----|
30
口口口口 |①---|
①②③口 |②---|
口口口口 |③---|
口口口口 |----|
31
口口口口 |①---|
口口口口 |②---|
口③②① |③---|
口口口口 |----|
32
口①口口 |①---|
③②口口 |②---|
口口口口 |③---|
口口口口 |----|
33
口口①④ |①---|
口口②③ |②---|
口口口口 |③---|
口口口口 |④---|
34
口①①口 |①---|
口②②口 |----|
口口口口 |②---|
口口口口 |----|
35
口口口口 |①---|
口口口口 |----|
口①①口 |②---|
口②②口 |----|
36
口口 |①---|
口口 |----|
口口
口口口口

口口口口
口口口口
口口 |----|
口口口口 |②---|
37
口①①口 |①---|
口②②口 |--②-|
口口口口 |----|
口口口口 |----|
38
口口口口 |①---|
口口口口 |----|
①口口② |②---|
口口口口 |----|
39
口①①口 |①---|
口②②口 |--②-|
口口口口 |----|
口口口口 |----|
40
口口口口 |①---|
口口口口 |----|
②口口① |②---|
口口口口 |----|
41
口①①口 |①---|
口②②口 |--②-|
口口口口 |----|
口口口口 |----|
42
口口口口 |①---|
口口口口 |----|
口①②口 |②---|
口口口口 |----|
43
口口口口 |①---|
口口口口 |----|
①口口② |②---|
口口口口 |----|
44
口口口口 |①---|
口口口口 |----|
口①②口 |②---|
口口口口 |----|
45
口①①口 |①---|
口②②口 |--②-|
口③③口 |----|
口口口口 |③---|
46
口口口口 |----|
口口口口 |----|
口口口口 |①---|
口①①口 |----|
47
口口口 |①---|
口口口
口口口
口口口口

口口口
口口口 |--②-|
口口 |③---|
口口口口 |----|
48
口口口口 |----|
口口口口 |----|
口口口 |----|
口口口口 |--①-|
49
口口口口 |----|
口口口口 |----|
口口口口 |----|
口口口口 |----|
50
口口口口 |----|
口口口口 |----|
口口口口 |----|
口口口口 |----|
51
口①②口 |①---|
口口口口 |----|
口口口口 |②---|
口口口口 |----|
52
口口口口 |①---|
口①②口 |----|
口口口口 |②---|
口口口口 |----|
53
口口口口 |①---|
口口口口 |----|
口①②口 |②---|
口口口口 |----|
54
口口口口 |①---|
口口口口 |----|
②口口② |②---|
①口口① |----|
55
口②②口 |①---|
①口口① |--②-|
口口口口
口口口口

口口口口

口③③口 |----|
口口口口 |③-④-|
56
口口口口 |----|
口口口口 |----|
口口口口 |----|
口口口口 |----|
57
口口口口 |----|
口 |----|
口口口口 |----|
口口口口 |--①-|

不確定度: 0

最終更新:2015年11月07日 00:00