女々しくて [2]
ゴールデンボンバー

ADVANCED

Level: 6
BPM: 143
Notes: 409

1
口口口口 |----|
口口口口 |----|
口口口口 |----|
口口口口 |----|
2
口口口口 |①-②-|
③③口口 |③-④-|
②②口口
①①④④

口口口口
口口⑥⑥
⑧⑧⑤⑤ |⑤-⑥-|
⑦⑦口口 |⑦-⑧-|
3
口口口口 |①---|
①①口口 |----|
口口口口
口口口口

口口口口
口③③口
口②②口 |②--③|
口④④口 |--④-|
4
|①---|
口口口口
口口口口
口口口口

口口口
|--②③|
口口②③ |④---|
口口口口 |----|
5
口口口口 |----|
口口口 |----|
口口口口 |----|
口口口口 |--①-|
6
口口口③ |①---|
①④⑤口 |②-③-|
口⑥⑦② |④⑤-⑥|
⑧口口口 |⑦-⑧-|
7
|①---|
口口口口 |----|
口口口口
口口口口

口口口

口口口口 |②---|
口口口口 |----|
8
④口口口 |①-②-|
③口口 |③-④-|
②口口口
口口①口

口口口⑦
口口口⑥
口口口⑤ |⑤-⑥-|
口口口口 |⑦---|
9
③口口⑥ |--①-|
②口口⑤ |②-③-|
①口口④ |④-⑤-|
口口口口 |⑥---|
10
③口口⑥ |--①-|
②口口⑤ |②-③-|
①口口④ |④-⑤-|
口口口口 |⑥---|
11
口 |①---|
口 |----|



口口口口
④口口⑤
②口口③ |②-③-|
口 |④-⑤-|
12
①②③口 |--①-|
口口⑥⑥ |②-③-|
口口⑤⑤ |④--⑤|
口口④④ |--⑥-|
13
口③②① |--①-|
⑥⑥口口 |②-③-|
⑤⑤口口 |④--⑤|
④④口口 |--⑥-|
14
口口 |--①-|
口口 |②-③-|
口④ |④--⑤|
口②

口口
口口
口口
口 |--⑥-|
15
④⑤⑥口 |--①-|
口③口口 |②-③-|
①口口② |--④-|
口口口 |⑤-⑥-|
16
口口口口 |--①-|
⑥③②① |②-③-|
⑤口口口 |④--⑤|
④口口口 |--⑥-|
17
④口口口 |--①-|
⑤口口口 |②-③-|
⑥①②③ |④--⑤|
口口口口 |--⑥-|
18
口⑤⑤口 |--①-|
口口口口 |②-③-|
口③④口 |④--⑤|
⑥①②⑥ |--⑥-|
19
① |--①-|
② |②-③-|



口口口口
口口口口
口口口口 |----|
口 |--④-|
20
口⑥口口 |----|
①②口口 |①-②③|
口④⑤③ |--④-|
口口口口 |⑤-⑥-|
21
口口①② |①-②-|
③⑦口⑥ |--③-|
⑤口口④ |④-⑤-|
口口口口 |⑥-⑦-|
22
口②③口 |----|
口⑥口口 |①-②③|
口⑤④口 |--④-|
口①口口 |⑤-⑥-|
23
口④口口 |①-②-|
②口①③ |③-④-|
口口口口
口口口口

口口口口
口⑦⑦口
口⑥⑥口 |--⑤-|
口⑤⑤口 |⑥-⑦-|
24
|----|
口口口口 |①---|
口口口口
口口口口

口口口

口口口口 |②---|
口口口口

口口口口
口口口

口口口口 |③---|
25
口口口口 |①---|
口口口口
口口口


口口口口
口口⑥口 |②-③-|
口③⑤口 |--④-|
口②④ |⑤-⑥-|
26
|①---|
口口口口 |----|
口口口口
口口口口

口口口
口口口口
口口口口 |--②-|
③口口③ |--③-|
27
口②②口 |①--②|
①口口① |--③-|
口口口口
口③③口

④口口④
⑤口口⑤
口口口口 |④---|
⑤口口⑤ |⑤---|
28
口口①② |①---|
④⑤⑤④ |②---|
口口②① |③-④-|
口③③口 |--⑤-|
29
①口口② |--①-|
③口口④ |②-③-|
⑤口口⑥ |④-⑤-|
口口口口 |⑥---|
30
口②②口 |①---|
③④口⑤ |②--③|
口口口口 |④-⑤-|
⑥①①⑥ |--⑥-|
31
③口口③ |--①-|
口口口口 |②-③-|
口②②口 |----|
口①①口 |----|
32
②④④② |①---|
|②---|
口口口口 |③-④-|
①③③① |--⑤-|
33
口口口口 |--①-|
⑥口口 |②-③-|
口④⑤① |④-⑤-|
口②③口 |⑥---|
34
①口②口 |--①-|
⑤口⑥口 |②-③④|
③④口口 |--⑤-|
⑦⑧口口 |⑥-⑦⑧|
35
②口口① |----|
②口口① |----|
口口口口 |--①-|
口口口口 |--②-|
36
口口口口 |①---|
口口口口 |----|



口口口口
口口口口
口口口 |----|
口口口 |②---|
37
⑦⑧口口 |①-②-|
③③⑥⑥ |③-④-|
②②⑤⑤ |⑤-⑥-|
①①④④ |⑦-⑧-|
38
口口①⑤ |①---|
③④口⑤ |②--③|
口口口口 |④-⑤-|
口②②口 |----|
39
⑦口口⑧ |①-②-|
③③⑥⑥ |③-④-|
②②⑤⑤ |⑤-⑥-|
①①④④ |⑦-⑧-|
40
口 |①-|
口口口口
口口口口
口口口口

⑥⑥ |-②|
口⑤口口 |③--④|
口④③口 |⑤-⑥-|
口口②口 |----|
41
口口口口 |①-②-|
③③口口 |③-④-|
②②口口
①①④④

⑦⑦口口
⑧⑧⑥⑥
口口⑤⑤ |⑤-⑥-|
口口口口 |⑦-⑧-|
42
口口⑥口 |①---|
口⑤口② |②---|
①①④口 |③-④-|
口③口② |⑤-⑥-|
43
①口口口 |①---|
口口口② |②---|
③口⑤口 |③---|
口口口④ |④-⑤-|
44
口口口口 |①---|
|----|
口口口口
口口口口


口口口
口口口口 |②---|
口口口口 |----|
45
口口口 |①-②-|
③③口口 |③-④-|
②②口口
①①④④

口口口口
口口⑥⑥
⑧⑧⑤⑤ |⑤-⑥-|
⑦⑦口口 |⑦-⑧-|
46
口口口口 |①---|
①①口口 |----|
口口口口
口口口口

口口口口
口③③口
口②②口 |②--③|
口④④口 |--④-|
47
|①---|
口口口口
口口口口
口口口口

口口口
|--②③|
口口②③ |④---|
口口口口 |----|
48
口口口口 |----|
口口口 |----|
口口口口 |----|
口口口口 |--①-|
49
口口口③ |①---|
①④⑤口 |②-③-|
口⑥⑦② |④⑤-⑥|
⑧口口口 |⑦-⑧-|
50
|①---|
口口口口 |----|
口口口口
口口口口

口口口

口口口口 |②---|
口口口口 |----|
51
④口口口 |①-②-|
③口口 |③-④-|
②口口口
口口①口

口口口⑦
口口口⑥
口口口⑤ |⑤-⑥-|
口口口口 |⑦---|
52
③口口⑥ |--①-|
②口口⑤ |②-③-|
①口口④ |④-⑤-|
口口口口 |⑥---|
53
③口口⑥ |--①-|
②口口⑤ |②-③-|
①口口④ |④-⑤-|
口口口口 |⑥---|
54
口 |①---|
口 |----|



口口口口
④口口⑤
②口口③ |②-③-|
口 |④-⑤-|
55
口①①口 |①-②-|
⑤口口⑥ |③-④-|
②口口③ |⑤-⑥-|
口④④口

口口
口口
口口
⑦口口⑦ |⑦-⑧-|
56
口口口口 |----|
口口口口 |----|
口口口口 |----|
口口口口 |----|
57
口口 |----|
口口口口 |----|
口口口口 |----|
口口口口 |--①-|

不確定度: 0

最終更新:2015年11月06日 23:59