天ノ弱 [2]
164 feat. GUMI

BASIC

Level: 4
BPM: 200-205
Notes: 259

全程BPM在200-205間飄忽不定
1
口口口口 |----|
口口口口 |----|
口口口口 |----|
口口口口 |----|
2
口口口口 |----|
口①口口 |----|
口口口口 |----|
口口口口 |①---|
3
口口口口 |①---|
口口①口 |----|
②口口② |②---|
口口口口 |----|
4
①口口① |①---|
口②口口 |----|
口口口口 |----|
口口口口 |②---|
5
口口口口 |①---|
口口①口 |----|
②口口② |②---|
口口口口 |----|
6
口①口口 |①---|
口口②口 |②---|
口③④口 |③---|
口口口口 |④---|
7
②口口② |①---|
口①口口 |----|
口口口口 |②---|
口口口口 |----|
8
口口口口 |①---|
口③口口 |②---|
口①②口 |----|
口口口口 |③---|
9
②口口② |①---|
口口①口 |----|
口口口口 |②---|
口口口口 |----|
10
口口口口 |①---|
①③口① |----|
②口口② |②---|
口口口口 |③---|
11
②口口② |①---|
口口①口 |----|
口口口口 |②---|
口口口口 |----|
12
口口口口 |①---|
口口口口 |②---|
口①②口 |----|
口口口口 |----|
13
口口口口 |①---|
①口口① |----|
口口口口 |②---|
②口口② |----|
14
口口口口 |①---|
口①口口 |②---|
口④②口 |③---|
口③口口 |④---|
15
②口口② |①---|
口口①口 |----|
口口口口 |②---|
口口口口 |----|
16
口口口口 |①---|
口③口口 |②---|
口①②口 |----|
口口口口 |③---|
17
②口口② |①---|
口口①口 |----|
口口口口 |②---|
口口口口 |----|
18
口口口口 |①---|
①口口① |----|
②口口② |②---|
口口口口 |----|
19
口口口口 |①---|
口口口口 |----|
口口口口 |----|
|----|
20
口口口口 |----|
口②口口 |----|
口口口口 |①---|
口口 |②---|
21
口口口 |①---|
口口口 |----|
口口口口
口口口口

口口口口
口口
口口口口 |----|
口口口口 |②---|
22
|①---|
口口口口 |----|
口口口口 |----|
口口口口 |----|
23
口口 |①---|
|----|
口口口口 |----|
口口口口 |----|
24
口口口口 |----|
口口 |----|
口口口口 |----|
口口口口 |①---|
25
口口口口 |----|
口口口口 |----|
口口口口 |----|
口口口口 |----|
26
口口口口 |----|
口①口口 |----|
口口口口 |----|
口口口口 |①---|
27
口口口口 |①---|
口口①口 |----|
②口口② |②---|
口口口口 |----|
28
口①②口 |①---|
口③口口 |②---|
口口口口 |----|
口口口口 |③---|
29
②口口② |①---|
口口①口 |----|
口口口口 |②---|
口口口口 |----|
30
口口口口 |①---|
口①口口 |②---|
口口②口 |③---|
口③④口 |④---|
31
口口口口 |①---|
②口口② |----|
口①口口 |②---|
口口口口 |----|
32
口口口口 |①---|
口①口 |②---|
口口
口口口口

口④口口
口口
口口口口 |③---|
口口口口 |④---|
33
口口①口 |①---|
②口口② |----|
口口口口 |②---|
口口口口 |----|
34
口③④口 |①---|
口口②口 |②---|
口①口口 |③---|
口口口口 |④---|
35
口口口口 |①---|
②①口② |----|
口口口口 |②---|
口口口口 |----|
36
口口 |①---|
口口 |----|
口口
口口口口

口口口口
口③口口
口口 |②---|
口口口口 |③---|
37
②口口② |①---|
口口①口 |----|
口口口口 |②---|
口口口口 |----|
38
口口口口 |①---|
口①口口 |②---|
口口②口 |③---|
口③④口 |④---|
39
口口口口 |①---|
②口口② |----|
口①口口 |②---|
口口口口 |----|
40
口①②口 |①---|
口③口口 |②---|
口口口口 |----|
口口口口 |③---|
41
②口口② |①---|
口口①口 |----|
口口口口 |②---|
口口口口 |----|
42
口口口口 |①---|
①口口① |----|
口②②口 |②---|
口口口口 |----|
43
口口口口 |①---|
口口口口 |----|
口口口口 |----|
口①①口
44
口口口口 |①---|
口①②口 |②---|
口口口口 |----|
口口口口
45
口口口口 |①---|
②口口② |--②-|
①口口① |----|
口口口口
46
①口口① |①---|
口②②口 |②---|
口口口口 |----|
口口口口
47
口口口口 |①---|
①口口① |----|
口口口口 |----|
口口口口
48
口口口口 |①---|
口②③口 |----|
①口口① |②---|
口口口口 |③---|
49
口口口口 |①---|
口口口口 |②---|
口①②口 |③---|
口③口口
50
口口口口 |①---|
口②③口 |----|
口口口口 |②---|
口口①口 |③---|
51
|①---|
口口口口 |----|
口口口口 |----|
口口口口 |----|
52
①口口 |①---|
①②③口 |----|
口口口口 |②---|
口口口口 |③---|
53
|①---|
口口口② |----|
口口口口 |②---|
口口口口 |----|
54
口口① |①---|
口②③口 |----|
口口口口 |②---|
口口口口 |③---|
55
|①---|
口口口口
口口口口
口口口口

口口②
口口口口 |②---|
口口口口 |----|
口口口口 |----|
56
口口口口 |①---|
②口口口 |----|
①口口① |----|
口口口口 |②---|
57
口②③口 |①---|
口①④口 |②---|
口口口口 |③---|
口口口口 |④---|
58
口口口口 |①---|
口口口① |----|
口②③口 |②---|
口口口口 |③---|
59
|①---|
口口口口 |----|
口口口口 |----|
口口口口 |----|
60
①口口 |①---|
口②③口 |----|
口口口口 |②---|
口口口口 |③---|
61
|①---|
口口口口 |----|
口口口口 |----|
口口口口 |----|
62
口口口 |①---|
口口 |----|
口口口口
口口口口

口口口口
口口口
口口 |②---|
口口口口 |----|
63
口口口口 |①---|
口口口口 |----|
口口口
口口

口口口口
口口口口
口口口口 |----|
口口口 |②---|
64
①口口① |----|
口口口口 |----|
口口口口 |①---|
口口口口 |----|
65
口口口口 |①---|
①口口① |----|
②口口② |②---|
口③口口 |③---|
66
口口口口 |①---|
口②③口 |----|
口口口口 |②---|
口口①口 |③---|
67
|①---|
口口口口 |----|
口口口口
口口口口

口口②
口口口口
口口口口 |②---|
口口口口 |----|
68
口口口口 |①---|
口②③口 |----|
①口口① |②---|
口口口口 |③---|
69
|①---|
口口口口 |----|
口口口口
口口口口

②口口
口口口口
口口口口 |②---|
口口口口 |----|
70
口①①口 |①---|
口②③口 |----|
口口口口 |②---|
口口口口 |③---|
71
①口口① |①---|
口口口口 |----|
口口口口 |----|
口口口口 |----|
72
口口口口 |①---|
①②口① |----|
口口口口 |----|
口口口口 |②---|
73
口口口口 |①---|
口口①口 |----|
②口口② |②---|
口口口口 |----|
74
口口口口 |①---|
①②③① |----|
口口口口 |②---|
口口口口 |③---|
75
|①---|
口口口口 |----|
口口口口
口口口口

口口②
口口口口
口口口口 |②---|
口口口口 |----|
76
口口口口 |①---|
口②③口 |----|
①口口① |②---|
口口口口 |③---|
77
|①---|
口口口口 |----|
口口口口
口口口口

②口口
口口口口
口口口口 |②---|
口口口口 |----|
78
口口口口 |①---|
口口口口 |----|
口口口口
口口

口口口口
口口口口
口口 |②---|
口口口 |----|
79
口口口口 |①---|
口口 |----|
口口口
口口口口

口口口口
口口口
口口口口 |----|
口口口口 |②---|
80
口口 |----|
口口口口 |----|
口口口口 |①---|
口口口口 |----|
81
口口 |①---|
口口 |----|
口口口口
口口口口

口口口口
口口
口口 |②---|
口口口口 |③---|
82
口口口口 |----|
口口口口 |①---|
口口 |②---|
口口 |----|
83
口口 |①---|
口口 |----|
口口
口口

口口口口
口口口口
口口 |----|
口口口口 |②---|
84
口口口口 |----|
口口口口 |----|
口口口口 |----|
口口口口 |----|
85
口口口口 |----|
口口口口 |----|
口口口口 |----|
口口口口 |----|
86
口口 |①---|
口口口口 |----|
口口口口
口口口口

口口口
口口
口口口口 |②---|
口口口口 |----|
87
口口口口 |①---|
口口口 |----|
|----|
口口口口 |----|
88
口口口口 |----|
口口口口 |----|
口 |①---|
口口口口 |----|

不確定度: 0

最終更新:2015年11月06日 23:21