白鳥の湖
Swan Lake Orchestra

ADVANCED

Level: 7
BPM: 180-300
Notes: 469

BPM: 180
1
口口口口 |----|
口口口口 |----|
口口口口 |----|
口口口口 |----|
2
口口口口 |----|
口口口口 |----|
口口口口 |----|
口口口口 |----|
3
口口口口 |----|
口口口口 |----|
口口口口 |----|
口口口口 |----|
4
①口口口 |①---|
②③④⑤ |----|
口口口口 |②-③-|
口口口口 |④-⑤-|
5
口口口① |①---|
口口口口 |--②-|
口口口③ |③---|
④口口② |--④-|
6
②口口口 |①---|
③④⑤⑥ |--②-|
①口口口 |③-④-|
口口口口 |⑤-⑥-|
7
口口口① |①---|
口口口④ |----|
口口③口 |--②-|
口口②口 |③-④-|
8
口口口① |①---|
②③④⑤ |----|
口口口口 |②-③-|
口口口口 |④-⑤-|
9
口口口① |①---|
口口口口 |--②-|
③口口口 |③---|
②口口④ |--④-|
10
②口口口 |①---|
③④⑤⑥ |--②-|
口口口① |③-④-|
口口口口 |⑤-⑥-|
11
口口口① |①---|
口②口口 |----|
②口口口 |----|
口口口口 |②---|
12
口④⑤口 |①---|
③口①② |②---|
口①②③ |③---|
口口口口 |④-⑤-|
13
口口口① |①---|
口⑤④口 |--②-|
口口口口 |③---|
口③②口 |④-⑤-|
14
口④⑤口 |①---|
①口口口 |--②-|
口②③口 |③---|
口口口口 |④-⑤-|
15
口口口① |①---|
②③④口 |--②-|
口口⑤⑥ |③-④-|
口口口口 |⑤-⑥-|
16
①①口口 |①---|
口④⑤口 |②---|
口口口口 |③---|
③③②② |④-⑤-|
17
口③②口 |①---|
口口口① |--②-|
口⑤④口 |③---|
口口口口 |④-⑤-|
18
口口②③ |①---|
口④⑤口 |--②-|
①口口口 |③---|
口口口口 |④-⑤-|
19
③②口口 |①---|
口口口① |--②-|
口⑤④口 |③---|
口口口口 |④-⑤-|
20
②口口② |①---|
③④④③ |----|
①⑤⑤口 |②-③-|
口口口口 |④-⑤-|
21
口口口口 |①---|
④口口④ |②-③-|
③口口③ |④---|
②①①② |----|
22
口口口口 |----|
口口口口 |----|
口口口口 |----|
口口口口 |----|

BPM: 220
23
①口口口 |①---|
②③④⑤ |----|
口口口口 |②-③-|
口口口口 |④-⑤-|
24
口口口① |①---|
口口口口 |--②-|
口口口③ |③---|
④口口② |--④-|
25
②口口口 |①---|
③④⑤⑥ |--②-|
①口口口 |③-④-|
口口口口 |⑤-⑥-|
26
口口口① |①---|
口口口④ |----|
口口③口 |--②-|
口口②口 |③-④-|
27
口口口① |①---|
②③④⑤ |----|
口口口口 |②-③-|
口口口口 |④-⑤-|
28
口口口① |①---|
口口口口 |--②-|
③口口口 |③---|
②口口④ |--④-|
29
②口口口 |①---|
③④⑤⑥ |--②-|
口口口① |③-④-|
口口口口 |⑤-⑥-|
30
口口口① |①---|
口②口口 |----|
②口口口 |----|
口口口口 |②---|
31
口④⑤口 |①---|
③口①② |②---|
口①②③ |③---|
口口口口 |④-⑤-|
32
口口口① |①---|
口⑤④口 |--②-|
口口口口 |③---|
口③②口 |④-⑤-|
33
口④⑤口 |①---|
①口口口 |--②-|
口②③口 |③---|
口口口口 |④-⑤-|
34
口口口① |①---|
②③④口 |--②-|
口口⑤⑥ |③-④-|
口口口口 |⑤-⑥-|
35
①①口口 |①---|
口④⑤口 |②---|
口口口口 |③---|
③③②② |④-⑤-|
36
口③②口 |①---|
口口口① |--②-|
口⑤④口 |③---|
口口口口 |④-⑤-|
37
口口②③ |①---|
口④⑤口 |--②-|
①口口口 |③---|
口口口口 |④-⑤-|
38
③②口口 |①---|
口口口① |--②-|
口⑤④口 |③---|
口口口口 |④-⑤-|
39
口④③② |①---|
口口口口 |--②-|
①口口口 |③---|
口口口口 |--④-|
40
①口口口 |①---|
②③④⑤ |----|
口口口口 |②-③-|
口口口口 |④-⑤-|
41
口口口① |①---|
口口口口 |--②-|
口口口③ |③---|
④口口② |--④-|
42
②口口口 |①---|
③④⑤⑥ |--②-|
①口口口 |③-④-|
口口口口 |⑤-⑥-|
43
口口口① |①---|
口口口④ |----|
口口③口 |--②-|
口口②口 |③-④-|
44
口口口① |①---|
②③④⑤ |----|
口口口口 |②-③-|
口口口口 |④-⑤-|
45
口口口① |①---|
口口口口 |--②-|
③口口口 |③---|
②口口④ |--④-|
46
②口口口 |①---|
③④⑤⑥ |--②-|
口口口① |③-④-|
口口口口 |⑤-⑥-|
47
口口口① |①---|
口②口口 |----|
②口口口 |----|
口口口口 |②---|
48
口④⑤口 |①---|
③口①② |②---|
口①②③ |③---|
口口口口 |④-⑤-|
49
口口口① |①---|
口⑤④口 |--②-|
口口口口 |③---|
口③②口 |④-⑤-|
50
口④⑤口 |①---|
①口口口 |--②-|
口②③口 |③---|
口口口口 |④-⑤-|
51
口口口① |①---|
②③④口 |--②-|
口口⑤⑥ |③-④-|
口口口口 |⑤-⑥-|
52
①①口口 |①---|
口④⑤口 |②---|
口口口口 |③---|
③③②② |④-⑤-|
53
口③②口 |①---|
口口口① |--②-|
口⑤④口 |③---|
口口口口 |④-⑤-|
54
口口②③ |①---|
口④⑤口 |--②-|
①口口口 |③---|
口口口口 |④-⑤-|
55
口④口口 |①---|
④口口① |②---|
②口口③ |③---|
口②③口 |④---|
56
③口①③ |①---|
口③③① |②---|
口②②口 |③---|
口口口口 |----|
57
口②③口 |①---②-|
①⑥⑤口 |--③---|
口口口④ |④---⑤-|
口口口口 |--⑥---|
58
②口口② |①---|
口口口口 |----|
口口口口 |②---|
①口口① |----|
59
口②③口 |①---②-|
①⑥⑤口 |--③---|
口口口④ |④---⑤-|
口口口口 |--⑥---|
60
②口口② |①---|
口口口口 |----|
口口口口 |②---|
①口口① |----|
61
口②③口 |①---②-|
①⑥⑤口 |--③---|
口口口④ |④---⑤-|
口口口口 |--⑥---|
62
②口口② |①---|
口口口口 |----|
口口口口 |②---|
①口口① |----|
63
口②③口 |①---②-|
①⑥⑤口 |--③---|
口口口④ |④---⑤-|
口口口口 |--⑥---|
64
①口口① |①---|
口口口口 |----|
口②②口 |②---|
口口口口 |----|
65
口②③口 |①---②-|
①⑥⑤口 |--③---|
口口口④ |④---⑤-|
口口口口 |--⑥---|
66
①口口① |①---|
③口口口 |----|
口口口口 |②---|
口②②口 |--③---|
67
口①①口 |①---|
口③③口 |--②---|
口口口② |③---|
④口口口 |--④---|
68
口③③口 |①---|
口口口② |--②---|
④①①口 |③---|
口口口口 |--④---|
69
口口口口 |①---|
口①①口 |②---|
口②②口 |③---|
④③③④ |④---|
70
③④④③ |①---|
②口口② |②---|
①口口① |③---|
口口口口 |④---|
71
口口口口 |①---|
口①①口 |②---|
口②②口 |③---|
④③③④ |④---|
72
③④④③ |①---|
②口口② |②---|
①口口① |③---|
口口口口 |④---|

BPM: 300
73
口口口口 |----|
口口口口 |----|
口口口口 |----|
口口口口 |----|
74
①口口口 |①---|
口口口口 |----|
口口口口 |----|
口口口口 |----|
75
口口口口 |①---|
①②③④ |②---|
口口口口 |③---|
口口口口 |④---|
76
口口口① |①---|
口口口口 |----|
口口口口 |----|
口口口② |②---|
77
口口口口 |①---|
口口口口 |----|
口口口① |----|
②口口口 |②---|
78
口②口口 |①---|
②口口口 |----|
①口口口 |②---|
口口口口 |----|
79
口口①口 |①---|
口口口① |----|
口口口② |②---|
口口②口 |----|
80
口②口口 |①---|
②口口口 |----|
①口口口 |②---|
口①口口 |----|
81
口口①口 |①---|
口口口① |----|
口口口② |②---|
口口②口 |----|
82
①口口口 |①---|
口口口口 |----|
①口口口 |----|
口口口口 |----|
83
口口口口 |①---|
①②③④ |②---|
口口口口 |③---|
口口口口 |④---|
84
口口口① |①---|
②口口口 |----|
口口口口 |----|
口口口口 |②---|
85
①口口口 |①---|
口口口口 |----|
口②②口 |②---|
口③③口 |③---|

BPM: 250
86
③①①③ |①---|
口口口口 |②---|
④口口④ |③---|
②口口② |④---|
87
口口口口 |①---|
①④④① |②---|
口③③口 |③---|
口②②口 |④---|
88
③①①③ |①---|
口口口口 |②---|
④口口④ |③---|
②口口② |④---|
89
口③③口 |①---|
①口口① |②---|
口口口口 |③---|
口②②口 |----|
90
①口口口 |①---|
②口口口 |②---|
③口口口 |③---|
④口口口 |④---|
91
口口口① |①---|
口口口② |②---|
口口口③ |③---|
口口口④ |④---|
92
口口口口 |----|
口口口口 |----|
口口口口 |----|
口口口口 |----|
93
口口口口 |----|
口①①口 |----|
①口口① |----|
口口口口 |①---|

BPM: 220
94
口口口口 |----|
口口口口 |----|
口①①口 |----|
①口口① |①---|
95
②口口② |----|
口①①口 |①---|
口②②口 |----|
口①①口 |②---|


不确定度: 0

タグ:

+ タグ編集
  • タグ:

このサイトはreCAPTCHAによって保護されており、Googleの プライバシーポリシー利用規約 が適用されます。

最終更新:2012年11月10日 14:04