天ノ弱 [2]
164 feat. GUMI

ADVANCED

Level: 7
BPM: 200-205
Notes: 557

全程BPM在200-205間飄忽不定
1
口口口口 |----|
口口口口 |----|
口口口口 |----|
口口口口 |----|
2
口口口口 |----|
①②口口 |----|
口口口口 |----|
口口口口 |①-②-|
3
口口口口 |①---|
口口①口 |②---|
口口口口


口⑤④口
口口口口
③口口口 |--③-|
口口口 |④-⑤-|
4
②口口② |①---|
口③④口 |②---|
口口口口 |----|
口①①口 |③-④-|
5
口口口口 |①---|
口⑥口口 |②-③-|
②④⑤③ |--④-|
口①①口 |⑤-⑥-|
6
①口口① |①---|
②口④② |②---|
③⑤口③ |③---|
口口口口 |④-⑤-|
7
④口③口 |①---|
口②口⑤ |②-③-|
⑥口口口 |--④-|
口口①口 |⑤-⑥-|
8
口②②口 |①---|
口口口口 |②---|
口口口④ |----|
③①①口 |③-④-|
9
口③③② |①-②-|
①口口口 |--③-|
⑤口口口 |--④-|
口④④口 |--⑤-|
10
口④④口 |①-②-|
⑤口口⑥ |③---|
口①③② |④---|
口口口口 |⑤-⑥-|
11
口口④口 |①---|
⑤②③口 |②-③-|
口口⑥口 |--④-|
口①①口 |⑤-⑥-|
12
②②口口 |①---|
③口口口 |②---|
口④口口 |----|
①①口口 |③-④-|
13
口口②② |①---|
口③⑥口 |②-③-|
③口⑤口 |--④-|
口④①① |⑤-⑥-|
14
①⑥口口 |①-②-|
③口⑦② |③-④-|
⑤口口④ |⑤---|
口口口口 |⑥-⑦-|
15
口口口口 |①---|
⑦口口⑥ |②-③-|
⑤①口④ |④-⑤-|
③口口② |⑥-⑦-|
16
① |①-②-|
口 |③---|
口口口口
口口口口

口口
口口
⑤⑥口口 |④---|
口口口口 |⑤-⑥-|
17
口口口口 |①---|
口口⑥口 |②-③-|
口⑤①③ |--④-|
④口口② |⑤-⑥-|
18
口口口 |①---|
口口口
口口口
口口口

口口
口口口 |②---|
口口
口口


口口
口口 |③---|
口口

口口
口口口
口口口
口口口 |④---|
19
口口口 |①---|
|----|
|----|
|----|
20
口口口口 |----|
口口口 |----|
口口口 |①---|
口②② |②---|
21
口 |①---|
口 |----|




口口口口
口口口口 |----|
口口口口 |②---|
22
口口 |①---|
口口 |----|
口口
口口

口口口口
口口口口
口口口口 |----|
口口 |②---|
23
口 |①---|
口 |----|
口 |----|
口 |----|
24
口口口口 |----|
口口口口 |----|
口口口口 |----|
口 |①---|
25
口口口口 |①---|
口口口口 |----|
①口口① |----|
①口口① |----|
26
①②②① |①---|
①口口① |----|
口口口口 |----|
口口口口 |②---|
27
⑥口口口 |①---|
口口⑤④ |②-③-|
②③口口 |--④-|
口①①口 |⑤-⑥-|
28
③①口② |①---|
口④口口 |②---|
口口口② |----|
口口口口 |③-④-|
29
口⑤口② |①---|
口口③口 |②-③-|
口口①口 |--④-|
④口口④ |--⑤-|
30
口口①口 |①---|
口②口口 |②-③-|
⑤⑥③口 |④---|
口④口口 |⑤-⑥-|
31
⑤口口口 |①---|
④⑥①③ |②-③-|
口口口口 |--④-|
口口口② |⑤-⑥-|
32
口① |①---|
口口口口 |②---|
口口
口口口口

口口口
口口口口
口口⑤ |③---|
口④口口 |④-⑤-|
33
③口口③ |①---|
口①①口 |②-③-|
⑥②口口 |--④-|
口④⑤口 |⑤-⑥-|
34
④口口⑤ |①-②-|
②口口③ |③-④-|
口口⑦① |⑤---|
口⑥口口 |⑥-⑦-|
35
④口口⑤ |①---|
⑥①③口 |②-③-|
口②口口 |--④-|
口口口口 |⑤-⑥-|
36
口 |①---|
口口口① |②---|

口口口口

口口
口口口口
口口 |③---|
④口口④ |④---|
37
①口口① |①---|
口②③口 |②-③-|
口口口口 |--④-|
口④④口 |----|
38
①口口② |①-②-|
③口口④ |③-④-|
⑤口口口 |⑤---|
口⑥⑦口 |⑥-⑦-|
39
①③③① |①---|
口口口口 |②-③-|
口⑥口口 |--④-|
②④⑤② |⑤-⑥-|
40
②口口口 |①---|
口口口口 |②---|
②口①口
口口口口

口口口口
口口口口
口③④口 |----|
口口口口 |③-④-|
41
口②③口 |①---|
口④口口 |②-③-|
口口⑤① |--④-|
口⑥口口 |⑤-⑥-|
42
①④④① |①---②-|
②⑤⑤② |--③---|
③⑥⑥③ |④---⑤-|
口口口口 |--⑥---|
43
②口口② |①---|
口口口口 |--②-|
口口口口 |----|
口①①口
44
口口口口 |①---|
口②口口 |②-③-|
口口③口 |④---|
①④口①
45
口 |①---|
口口口口
口口口口
口口口口

口口口
|--②-|
口口口口 |----|
口口口口
46
口口口口 |①---|
口口口
口口
口口口口

口⑤口口
口④口口 |②-③-|
口③口 |④-⑤-|
口口②口
47
①口①① |①---|
②口③② |--②-|
口口口口 |--③-|
口口口口
48
口口口口 |①---|
口口口口 |②---|
①口①①
口口②口

口③③口
口口口口
口口口口 |③---|
|④---|
49
口口口口 |①---|
口口口口

口口口

口口口口
|②---|
口口口
口口口口


口口口
口口口口 |③---|
口口口口
50
口口口 |①---|
口③③口 |----|
②口口② |②---|
口①①口 |③---|
51
|①---|
口口口口
口口口口
口口口口

口口
|--②-|
口口口口
口口口口

口口口口
口口
口口口口 |----|
口③③口 |③---|
52
口①①口 |①---|
口口口口 |----|
③口口③ |②---|
②口口② |③---|
53
|①---|
口口口口
口口口口
口口口口

口口
口②②口 |--②-|
口③口口 |--③-|
口口④口 |④---|
54
口口⑤口 |①---|
口④口口 |----|
①口③① |②-③-|
口②口口 |④-⑤-|
55
②口口② |①---|
口口口口 |②---|
口口口口 |----|
①③③① |③---|
56
口口口口 |①---|
②口口② |②---|
③①①口 |----|
③口口口 |③---|
57
②口口③ |①---|
②④口③ |②---|
口④口① |③---|
口口口① |④---|
58
口口口口 |①---|
口口①口 |----|
口③①口 |②---|
口口②口 |③---|
59
|①---|
口口口口
口口口口
口口口口

口口
|--②-|
口口口口
口口口口

口口口口
口口
口③③口 |----|
口口口口 |③---|
60
口口口口 |①---|
口口口口 |----|
口③③口 |②---|
①②②① |③---|
61
|①---|
口口口口
口口口口
口口口口

口口
|--②-|
口口口口
口口口口

口口口口
口口
口③③口 |----|
口口口口 |③---|
62
口①①口 |①---|
口②②口 |----|
口口口口 |②---|
口口口口 |----|
63
口口 |①---|
口口 |----|
口口 |----|
口口 |----|
64
口口口口 |①---|
口口口口 |----|
口 |②---|
|----|
65
口口口 |①---|
口口口
口口口


口口
口口 |--②-|
口口
口口口口


口口
口口口口 |----|
口口口口 |③---|
66
口口 |①---|
口口口
口口口口
口口口口

口口口口
口口口 |②---|
口④④口 |③---|
口③③口 |④---|
67
|①---|
口口口口
口口口口
口口口口

口口
|--②-|
口口口口
口口口口

口口口口
口口
口③③口 |----|
口口口口 |③---|
68
口①①口 |①---|
口②②口 |----|
口③③口 |②---|
口口口口 |③---|
69
口口 |①---|
口口
口口
口口

口③④口
口口口口 |--②-|
口口口口 |--③-|
②② |④---|
70
口口口口 |①---|
①口口① |----|
口④⑤口 |②-③-|
口②③口 |④-⑤-|
71
①口口① |①---|
口口口口 |②---|
口口口口 |----|
②③③② |③---|
72
口③口口 |①---|
②③口② |②---|
口①①口 |----|
口口口口 |③---|
73
口口①口 |①---|
④口①口 |②---|
④②③口 |③---|
口②③口 |④---|
74
口口口口 |①---|
口口口① |----|
口③③① |②---|
口②②口 |③---|
75
|①---|
口口口口
口口口口
口口口口

口口
|--②-|
口口口口
口口口口

口口口口
口口
口③③口 |----|
口口口口 |③---|
76
口口口口 |①---|
口口口口 |----|
①③③① |②---|
①②②① |③---|
77
|①---|
口口口口
口口口口
口口口口

④⑤
口②③口 |--②-|
口口口口 |③-④-|
口口口口 |⑤---|
78
口口口口 |①---|
口口口口 |----|
口口口口


口口口口
口口口口
|②---|
口口 |----|
79
口口口口 |①---|
|----|
口口 |----|
口口口口 |----|
80
|①---|
口口 |----|
口口口口 |②---|
口口口口 |----|
81
口口 |①---|
口口口口 |----|

口口口口



|②---|
口 |③---|
82
口 |----|
|--①-|
口口口口 |②---|
口口口口 |----|
83
口口口口 |①---|
口口 |----|

口口口口

口口口口
口口口口
口口 |----|
口口口口 |--②-|
84
口口口口 |----|
口口口口 |----|
口口口口 |----|
口口口口 |----|
85
口口口口 |----|
口口口口 |----|
口口口口 |----|
口口口口 |----|
86
|①---|
口口口口 |----|

口口口口

口口

口口 |②---|
口口口口 |----|
87
口 |①---|
|----|
口 |----|
口口口口 |----|
88
口口口口 |----|
口口口口 |----|
口 |①---|
口口口口 |----|
89
⑤⑥口口 |①-②-|
①②④③ |--③-|
口口口口 |④---|
口口口口 |⑤-⑥-|
90
口⑤②① |--①-|
口口④口 |②---|
口③口口 |③-④-|
口口口口 |⑤---|
91
口口口口 |①---|
③口口③ |②---|
②口口② |③---|
①④④① |--④-|
92
口①①口 |----|
口③④口 |①---|
②口口② |②---|
口口口口 |③-④-|

不確定度: 0

最終更新:2015年11月06日 23:20