天ノ弱 [2]
164 feat. GUMI

EXTREME

Level: 9
BPM: 200-205
Notes: 701

全程BPM在200-205間飄忽不定
1
口口口口 |----|
口口口口 |----|
口口口口 |----|
口口口口 |----|
2
口口口口 |----|
口口②① |----|
口口口口 |----|
口口口口 |①-②-|
3
口口口口 |①---|
①口口口
口口口口
口口

口口口口
口口口口 |②---|
口口②④ |③-④-|


口口口口
口⑥口口
口⑤口口
口口口 |⑤-⑥-|
4
口口 |①---|
口口口口
口口口口
口口口口


口口②口 |②---|
口口口口 |③---|
口口口口

口口口
口④口口
口⑤口口
口口口口 |④-⑤-|
5
口口口口 |①---|
口口口口
口口口口
口口

口口口口
口口②口 |②-③-|
口口③⑤ |④-⑤-|


口口口口
口⑦口口
口⑥口口
口口口 |⑥-⑦-|
6
口口 |①---|
口口口口
口口口口
口口口口


③口②口 |②---|
口口口口 |③---|
口口口口

口口口
口④口口
口⑤口口
口口口口 |④-⑤-|
7
口口口口 |①---|
口口口口
口口口口
口口

口口口口
口口⑤口 |②-③-|
口口②③ |④-⑤-|


口口口口
口⑦口口
口⑥口口
口口口 |⑥-⑦-|
8
口口 |①---|
口口口口
口口口口
口口口口


口口口② |②---|
口口口口 |③---|
口口口口

口口口
口④口口
口⑤口口
口口口口 |④-⑤-|
9
口口口口 |①-②-|
口口口口
②口口口
口口

口口口口
口口口口 |③-④-|
口口口④ |⑤---|


口口口口
口⑦口口
口口口口
口口口 |⑥-⑦-|
10
口口 |①-②-|
口口②口
口口口口
口口口口


口口口③ |③---|
口口口口 |④---|
口口口口

口口口
口⑥口口
口⑤口口
口口口口 |⑤-⑥-|
11
口口口口 |①---|
口口口口
口口口口
口口

口口口口
口口②口 |②-③-|
口口③⑤ |④-⑤-|


口口口口
口⑦口口
口⑥口口
口口口 |⑥-⑦-|
12
口口 |①---|
口口口口
口口口口
口口口口


口口口② |②---|
口口口口 |③---|
口口口口

口口口
口④口口
口⑤口口
口口口口 |④-⑤-|
13
口口口口 |①---|
口口口口
口口口口
口口

口口口口
口口③口 |②-③-|
口口②⑤ |④-⑤-|


口口口口
口⑦口口
口⑥口口
口口口 |⑥-⑦-|
14
口口 |①-②-|
口口口口
口口②口
口口口口


口口③口 |③---|
口口口口 |④---|
口口口口

口口口
口⑤口口
口⑥口口
口口口口 |⑤-⑥-|
15
口口口口 |①---|
口口口口
口口口口
口口

口口口口
口口③口 |②-③-|
口口②⑤ |④-⑤-|


口口口口
口⑦口口
口⑥口口
口口口 |⑥-⑦-|
16
口口 |①-②-|
口口口口
口口②口
口口口口


口口③口 |③---|
口口口口 |④---|
口口口口

口口口
口⑤口口
口⑥口口
口口口口 |⑤-⑥-|
17
口口口口 |①---|
口口口口
口口口口
口口

口口口口
口口③口 |②-③-|
口口②⑤ |④-⑤-|


口口口口
口⑦口口
口⑥口口
口口口 |⑥-⑦-|
18
①口口① |①---|
②口口② |②---|
口④④口 |③---|
口③③口 |④---|
19
|①---|
口②②口 |②---|
④⑥口口 |③-④-|
③⑤口口 |⑤-⑥-|
20
口③④ |--①-|
①②口口 |②---|
口口口口 |③-④-|
⑤口口⑤ |⑤---|
21
口口口 |①-②-|
口③口 |③---|
口②口口
口口口口

④口⑤口
⑥口⑦
口口口口 |④-⑤-|
口口口口 |⑥-⑦-|
22
口口口口 |①---|
口口口口 |②---|
②②
口口

③④⑤口
口口口口
口口口 |③-④-|
口口口口 |⑤---|
23
口口⑥口 |①---|
②口⑤口 |②---|
口②④ |③-④-|
口口③ |⑤-⑥-|
24
⑤⑤口口 |--①-|
④①口口 |②---|
③②口口 |③-④-|
口口口 |⑤---|
25
口口口⑧ |①-②-|
⑤⑥⑦口 |③-④-|
口口③④ |⑤-⑥-|
①②口口 |⑦-⑧-|
26
③②①口 |①-②-|
口口口口 |③-④-|
口⑥⑤④ |⑤-⑥-|
⑦口口⑦ |⑦---|
27
口②③口 |①---|
①⑤口① |②-③-|
口④⑥口 |--④-|
口口口口 |⑤-⑥-|
28
口③口口 |①---|
②④口② |②---|
口口口口 |----|
①口口① |③-④-|
29
口⑤口口 |①---|
口口②口 |②-③-|
口①③口 |--④-|
④口口④ |--⑤-|
30
④口①④ |①---|
口⑥③口 |②-③-|
②⑤口② |④---|
口口口口 |⑤-⑥-|
31
口①口口 |①---|
|②-③-|

口②②口

④口口口
口⑤口
口口⑥ |--④-|
口口口口 |⑤-⑥-|
32
口②②口 |①---|
口③口口 |②---|
口④口口 |----|
①口口① |③-④-|
33
口口口口 |①---|
口口②口 |②-|
口口口口
口①口口

口口口口
|③-|

口口口口

口口口④
口口⑤
口口⑥ |--④-|
口口口口 |⑤-⑥-|
34
口口口口 |①-②-|
口①口口 |③-④-|
口④②口
③口口③

⑤⑥口⑤
口⑦口口
口口口口 |⑤---|
口口口口 |⑥-⑦-|
35
口口口口 |①---|
④口③口 |②-③-|
⑤②①口 |--④-|
口口⑥口 |⑤-⑥-|
36
②③③② |①---|
口口口口 |②---|
口口口口 |----|
①口口① |③---|
37
④口口④ |①---|
口口③口 |②-③-|
口②口口 |--④-|
口①①口 |----|
38
口⑦⑥口 |①-②-|
⑤口口④ |③-④-|
③口口② |⑤---|
①口口口 |⑥-⑦-|
39
②口口② |①---|
口④口口 |②-③-|
⑤⑥④口 |--④-|
③①①③ |⑤-⑥-|
40
口③③② |①---|
口口②口 |②---|
口口口① |----|
口口①口 |③---|
41
④口口④ |①---|
口⑤③口 |②-③-|
口②⑥口 |--④-|
口①①口 |⑤-⑥-|
42
口④④口 |①---②-|
③⑤⑤③ |--③---|
②⑥⑥② |④---⑤-|
①口口① |--⑥---|
43
口口口口 |①---|
②口口② |--②-|
口口口口 |----|
口①①口
44
口②②口 |①---|
口口口口 |②-③-|
口④④口 |④---|
①③③①
45
|①---|
口口口口
口口口口
口口口口

口口口
口口口口 |②-|
口口口口
口口口口

口口口
口③③ |③-|
口口口
口口口

口口口口
口口口口
口口口口 |④---|
口口口

口口口口
口口口口
口口口口

46
口口口口 |①---|
口口口口
口口口口
口口口

口口口
口口口
口口口
口口口

口口口
口⑤口口 |②-③-|
口④③口 |④-⑤-|
口口②口
47
口②②口 |①---|
①口口① |--②-|
口口③口 |--③-|
口口口口
48
口③③口 |①---|
②口口② |②---|
口口口口 |③---|
①口口①


口口口口
口口口口
口口口口 |④---|
49
口口口 |①---|
口口口口
口口口口
口口口口

口口口
口口口
口口口
口口口

口口口口
口口口口 |②---|
口口口口
口口口

口口口口
口口口口
口口口口


口口口口
口口口口
口口口口 |③---|
口口口

口口口口
口口口
口口口
口口口
50
口口口口 |①---|
口口口
口口口口
口口口口

口口口口

口口口口
口口口口

口③③口
口口口 |②---|
口口口口 |③---|
口④④口 |④---|
51
|①---|

口口口口
口口口口

口口口
口口口 |--②-|



口口口口
口口口口
口口口 |----|
口③③ |③---|
52
③口口③ |①---|
②口口② |----|
口口①① |②---|
口口口口 |③---|
53
口口口口 |①---|
口口口口



口②口口
口②口口 |--②-|
口④④ |--③-|
口③③ |④---|
54
①口⑤① |①---|
①④口① |----|
口口口③ |②-③-|
②口口口 |④-⑤-|
55
②口口② |①---|
口口口口 |②---|
口③③口 |----|
口①①口 |③---|
56
②口口② |①---|
口①①口 |②---|
口口③口 |----|
口口口口 |③---|
57
口口口口 |①---|
口④④口 |②---|
③②口① |③---|
口③①口 |④---|
58
口①①口 |①---|
①口口① |----|
口②②口 |②---|
口③③口 |③---|
59
|①---|

口口口口
口口口口

口口口
口口口 |--②-|



口口口口
口口口口
口口口 |----|
口③③ |③---|
60
口②②口 |①---|
口③③口 |----|
口口①① |②---|
口口口口 |③---|
61
口口口口 |①---|
口口口口



④口口④
口口口③ |--②-|
口口口 |--③-|
口②② |④---|
62
口口口口 |①---|
|----|
口口口口
口口口口

口口口口
口口口
|②---|
口口口口 |----|
63
口口口口 |①-②-|
口口②②
口口口


口口④④
口口口口 |--③-|
口口⑥⑥ |④---|
口口⑤③ |⑤-⑥-|
64
|①-②-|
口口口口 |③---|
③③口口 |④-|
②口口

口⑤口口
口⑥口口
口口口口 |⑤-|
口口口口 |--⑥-|
65
口口口 |①---|

口口口口
口口口口

口口口口
口口口 |--②-|

口口口口

口口口口
口口口口
口口口 |③---|
④③口口 |④---|
66
口口口口 |①-②-|
口口口口
口②口口


⑧⑥⑦⑦
口④⑤⑤ |③-④-|
口口③口 |⑤-⑥-|
口口口 |⑦-⑧-|
67
口口口口 |①---|
口口口口

口口口口

口口口口
口口口口 |--②-|
口口口


口③③口
口口口口
口口口口 |----|
口口口 |③---|
68
⑦⑦⑧口 |①-②-|
⑤⑤⑥口 |③-④-|
口③④口 |⑤-⑥-|
口①②口 |⑦-⑧-|
69
口口口口 |①---|
口口口口
口口口口


口口口口
③口口口 |--②-|
口②②口 |--③-|
口④④ |④---|
70
①口②① |①-②-|
口③④口 |③-④-|
⑤⑤⑥⑥ |⑤-⑥-|
⑦⑦⑧⑧ |⑦-⑧-|
71
①口口① |①---|
②口口② |②---|
③口口口 |----|
口③口口 |③---|
72
口口口口 |①---|
③③口口 |②---|
口①②口 |----|
③③①② |③---|
73
①①③③ |①---|
④④②② |②---|
①①③③ |③---|
④④②② |④---|
74
①②口口 |①-②-|
口口④③ |③-④-|
⑤⑥口⑤ |⑤-⑥-|
⑦口⑧⑦ |⑦-⑧-|
75
①口口① |①---|
②①口② |--②-|
口口②口 |----|
③口口③ |③---|
76
⑦⑦⑧口 |①-②-|
⑤⑤⑥口 |③-④-|
口③④口 |⑤-⑥-|
口①②口 |⑦-⑧-|
77
④口口④ |①---|
口口口口 |--②-|
②③口② |--③-|
①口口① |④---|
78
口①②口 |①-②-|
口③④口 |③-④-|
口⑦⑧口 |⑤-⑥-|
⑤⑤⑥口 |⑦-⑧-|
79
|①-②-|
②口口③ |--③-|
口口口口
口口口口

口口口
口口口口
④口口⑤ |④---|
⑥口口口 |⑤-⑥-|
80
②口口口 |--①-|
|②---|
口口口口 |③-|
口口口①

口口⑤口
④口口口
口口口口 |④-|
口口口口 |--⑤-|
81
口口口口 |①-|
口口口

口口口口

口口口口 |②-|
口口口口 |--③-|
②②口 |④---|
④口③口

口口口口
⑥⑥口口
口口口口
|⑤-⑥-|
82
口②④口 |①-②-|
口口口口 |③-④-|
口①③口
口口口


口⑧⑥口
口口口口 |⑤-⑥-|
口⑦⑤口 |⑦-⑧-|
83
口口② |①-②-|
|--③-|
③口口口
口口口口

口口口口
④口口
口⑥口口 |④---|
口⑤口口 |⑤-⑥-|
84
③口口③ |--①-|
口口口口 |②---|
④口①④ |③---|
②口口② |④---|
85
口口口口 |①-②-|
④⑤⑥④ |③---|
口口②口 |④---|
③口①③ |⑤-⑥-|
86
|①---|
口口口口 |----|
口口口口
口口口口

口口口

②③④口 |②---③-|
②③④口 |--④---|
87
口口口口 |①---|
口口口 |----|
|----|
口口口口 |----|
88
②口口② |----|
③口口③ |--①-|
口口口 |②---|
口口口口 |③---|
89
口口口⑥ |①-②-|
口⑤②⑥ |--③-|
④①②口 |④---|
④口口③ |⑤-⑥-|
90
②③④口 |--①-|
②口①口 |②---|
口⑤⑥口 |③-④-|
口口口口 |⑤-⑥-|
91
③口口③ |①-②-|
口口口口 |③---|
口⑤⑤口 |④---|
①④④② |--⑤-|
92
①口口① |----|
口③④口 |①---|
口③④口 |②---|
②口口② |③-④-|

不確定度: 0

最終更新:2015年11月06日 23:15