君をのせて feat.sayurina [2]
新井大樹

BASIC

Level: 3
BPM: 140
Notes: 175

1
口口口口 |----|
口口口口 |----|
口口口口 |----|
口口口口 |----|
2
口口口口 |①---|
口口口口 |----|
口口口① |----|
口口口口 |----|
3
口口口口 |①---|
口口口口 |----|
口口①口 |----|
口口口口 |----|
4
口口口口 |①---|
口口口口 |----|
口①口口 |----|
口口口口 |----|
5
口口口口 |①---|
口口口口 |----|
①口口口 |----|
口口口口 |----|
6
口口口口 |①---|
①②口口 |----|
口口口口 |②---|
口口口口 |----|
7
口口口口 |①---|
口口①② |----|
口口口口 |②---|
口口口口 |----|
8
口口口口 |①---|
口口口口 |----|
口口②① |②---|
口口口口 |----|
9
口口口口 |①---|
口口口口 |----|
②①口口 |②---|
口口口口 |----|
10
口①①口 |①---|
口②②口 |----|
口口口口 |②---|
口口口口 |----|
11
口口口口 |①---|
口口口口 |----|
口①①口 |②---|
口②②口 |----|
12
口口口口 |①---|
口口口② |----|
口口口① |②---|
口口口口 |----|
13
|①---|
口口口口 |----|
口口口口
口口口口

口口口
口口口口
口口口口 |②---|
口口口口 |----|
14
口口口口 |①---|
②口口口 |----|
①口口口 |②---|
口口口口 |----|
15
|①---|
口口口口 |----|
口口口口
口口口口

口口口
口口口口
口口口口 |②---|
口口口口 |----|
16
口口口口 |①---|
口口口口 |----|
口口口② |②---|
口口口① |----|
17
口口口口 |①---|
|----|
口口口口
口口口口

口口口口
口口口
口口口口 |②---|
口口口口 |----|
18
口口口口 |①---|
口口口口 |----|
②口口口 |②---|
①口口口 |----|
19
口口口口 |①---|
|----|
口口口口
口口口口

口口口口
口口口
口口口口 |②---|
口口口口 |----|
20
口口口口 |①---|
口口口口 |②---|
口③④口 |③---|
口①②口 |④---|
21
口口口 |①---|
口口口 |----|
口口口
口口口

口口口
口口口口
口口口口 |②---|
口口口口 |----|
22
口口口口 |①---|
口口口口 |②---|
口④③口 |③---|
口②①口 |④---|
23
口口口 |①---|
口口口 |----|
口口口
口口口

口口口
口口口口
口口口口 |②---|
口口口口 |----|
24
口口口口 |①---|
④③②① |②---|
口口口口 |③---|
口口口口 |④---|
25
口①①口 |①---|
口口口口 |----|
口②②口 |②---|
口口口口 |----|
26
口口口口 |①---|
①口口② |②---|
③口口④ |③---|
口口口口 |④---|
27
口 |①---|
口 |----|



口口口口
口口口口
口口口口 |②---|
口 |----|
28
①口口口 |①---|
②口口口 |----|
口口口口 |②---|
口口口口 |----|
29
口口 |①---|
口口 |----|
口口
口口口口

口口口口
口口口口
口口 |②---|
口口口口 |----|
30
口口口① |①---|
口口口② |----|
口口口口 |②---|
口口口口 |----|
31
口口口 |①---|
口口口 |----|
口口
口口口口

口口口口
口口口口
口口口 |②---|
口口口口 |----|
32
口口口口 |①---|
③口口① |②---|
④口口② |③---|
口口口口 |④---|
33
口口口口 |①---|
口口口口 |----|
口②②口 |②---|
口①①口 |----|
34
口口口① |①---|
口口②口 |②---|
口③口口 |③---|
④口口口 |④---|
35
|①---|
口口口口 |----|
口口口口 |----|
口口口口 |----|
36
口口口 |----|
口口口口 |----|
口②②口 |①---|
口口口口 |②---|
37
口 |①---|
口口口口
口口口口
口口口口

口口口
|②---|
口口口口 |③---|
口口口口

口口口口
口口口
口口口口
口口口口 |④---|
38
口口口口 |①---|
口口口口 |②---|
①口口口 |----|
口②口口 |----|
39
口口①口 |①---|
口②口口 |②---|
口口③口 |③---|
口④口口 |④---|
40
口口口 |①---|
口口口 |----|
口口口
口口口

口口口口
口口口口
口③③口 |②---|
口口口 |③---|
41
口 |①---|
口口口口
口口口口
口口口口

口口口
|②---|
口口口口 |③---|
口口口口

口口口口
口口口
口口口口
口口口口 |④---|
42
口口口口 |①---|
口口口口 |②---|
①口口口 |----|
口②口口 |----|
43
口①口口 |①---|
口口②口 |②---|
口③口口 |③---|
口口④口 |④---|
44
口口口 |①---|
口口口 |----|
口口口
口口口

口口口口
口口口口
口③口口 |②---|
口口口 |③---|
45
口口口口 |①---|
口口口② |----|
口口口① |②---|
口口口口 |----|
46
|①---|
口口口口 |----|
口口口口
口口口口

口口口
口口口口
口口口口 |②---|
口口口口 |----|
47
口口口口 |①---|
②口口口 |----|
①口口口 |②---|
口口口口 |----|
48
|①---|
口口口口 |----|
口口口口
口口口口

口口口
口口口口
口口口口 |②---|
口口口口 |----|
49
口口口口 |①---|
口口口口 |----|
口口口② |②---|
口口口① |----|
50
口口口口 |①---|
|----|
口口口口
口口口口

口口口口
口口口
口口口口 |②---|
口口口口 |----|
51
口口口口 |①---|
口口口口 |----|
②口口口 |②---|
①口口口 |----|
52
口口口口 |①---|
|----|
口口口口
口口口口

口口口口
口口口
口口口口 |②---|
口口口口 |----|
53
口口口口 |①---|
口口口口 |②---|
口③④口 |③---|
口①②口 |④---|
54
口口口 |①---|
口口口 |----|
口口口
口口口

口口口
口口口口
口口口口 |②---|
口口口口 |----|
55
口口口口 |①---|
口口口口 |②---|
口④③口 |③---|
口②①口 |④---|
56
口口口 |①---|
口口口 |----|
口口口
口口口

口口口
口口口口
口口口口 |②---|
口口口口 |----|
57
口口口口 |①---|
④③②① |②---|
口口口口 |③---|
口口口口 |④---|
58
口①①口 |①---|
口口口口 |----|
口②②口 |②---|
口口口口 |----|
59
口口口口 |①---|
①口口② |②---|
③口口④ |③---|
口口口口 |④---|
60
口 |①---|
口 |----|



口口口口
口口口口
口口口口 |----|
口 |②---|
61
口口口口 |①---|
|----|
口口口口 |----|
口口口口 |----|
62
口口口口 |①---|
口口口 |----|
|----|
口口口口 |----|
63
口口口口 |①---|
口口口口 |----|
口口口 |----|
|----|
64
口口口口 |----|
口口②口 |----|
口口①口 |①---|
口口口 |②---|
65
|①---|
口口口口 |----|
口口口口 |----|
口口口口 |----|
66
口口口 |①---|
|----|
口口口口 |----|
口口口口 |----|
67
口口口口 |①---|
口口口 |----|
|----|
口口口口 |----|
68
口口口口 |----|
口口口口 |----|
口口口 |----|
口口口口 |--①-|
69
口口口口 |①---|
口①①口 |----|
口口口口 |----|
口口口口 |----|

不確定度: 0

最終更新:2015年11月06日 21:59