君をのせて feat.sayurina [2]
新井大樹

ADVANCED

Level: 6
BPM: 140
Notes: 430

1
口口口口 |----|
口口口口 |----|
口口口口 |----|
口口口口 |----|
2
②③口① |①--②|
⑤⑥口④ |--③-|
口口口口 |④--⑤|
口口口口 |--⑥-|
3
口口口口 |①--②|
口口口口 |--③-|
②③口① |④--⑤|
⑤⑥口④ |--⑥-|
4
④口口① |①--②|
口口口口 |--③-|
⑤口口② |④--⑤|
⑥口口③ |--⑥-|
5
口④①口 |①--②|
口口口口 |--③-|
口⑤②口 |④--⑤|
口⑥③口 |--⑥-|
6
②③口① |①--②|
⑤⑥口④ |--③-|
口口口口 |④--⑤|
口口口口 |--⑥-|
7
口口口口 |①--②|
口口口口 |--③-|
②③口① |④--⑤|
⑤⑥口④ |--⑥-|
8
④口口① |①--②|
口口口口 |--③-|
⑤口口② |④--⑤|
⑥口口③ |--⑥-|
9
口④①口 |①--②|
口口口口 |--③-|
口⑤②口 |④--⑤|
口⑥③口 |--⑥-|
10
⑥⑤④① |①--②|
③口口② |--③-|
②口口③ |④--⑤|
①④⑤⑥ |--⑥-|
11
口口口① |①--②|
口③②口 |--③-|
口②③口
①口口口

④口口口
口口口口
⑥口口口 |④---|
⑤口口④ |⑤-⑥-|
12
口口口④ |①---|
①③②口 |--②-|
口口口口 |③---|
口口口口 |④---|
13
口口口口 |①---|
口口口口 |②---|

口口口口

口口口口
口口口口
口口口 |③---|
③口口④ |④---|
14
口口口口 |①---|
口②③① |--②-|
④口口口 |③---|
口口口口 |④---|
15
口 |①---|
口口口口 |②---|
口口口②
口口口口

口口口
口口口口
口口口口 |③---|
口⑤④③ |④-⑤-|
16
口④③口 |①---|
口②口口 |--②-|
口口①口 |③-④-|
口口口口 |----|
17
口口口口 |①---|
②口口口 |②---|
口口口口


③④口口
口口⑤口
口⑥口口 |③-④-|
口口口 |⑤-⑥-|
18
口口口④ |①---|
④口口口 |--②-|
口口③口 |③---|
口②①口 |④---|
19
口 |①---|
|----|
口口口口
口口口口

口口口
口口口
口口④口 |②---|
口口③口 |③-④-|
20
口口口口 |①---|
口③① |--②-|
口②口 |③---|
口口口 |④---|
21
|①---|
口口口 |②---|
口口②口
口口口口

口口口
口口口口
口⑤口口 |③---|
口④③口 |④-⑤-|
22
口口口口 |①---|
①③口 |--②-|
口②口 |③---|
口口口 |④---|
23
|①---|
口口口 |②---|
口②口口
口口口口

口口口
口口口口
口口口口 |③---|
口③④口 |--④-|
24
口口口④ |①---|
口③②口 |②-③-|
口①口口 |----|
口口口口 |④---|
25
口①①口 |①--②|
口②②口 |--③-|
③口口③ |④---|
④口口④ |----|
26
口⑥②③ |①-②-|
⑤口①④ |③-④-|
④①口⑤ |⑤---|
③②⑥口 |⑥---|
27
口口 |①---|
口口口口 |----|
口口口口
口口

口口
口口口口
口④口口 |②---|
③口 |③-④-|
28
④口口④ |①---|
口③①口 |--②-|
口口②口 |③---|
口口口口 |④---|
29
口口口口 |①---|
口口 |----|
口口
口口

口口口口
口口口口
口口④口 |②---|
③口 |③-④-|
30
口④口口 |①---|
口①③口 |--②-|
口口口② |③---|
口口口口 |④---|
31
口口口口 |①---|
口口口口 |----|

口口口口

口口口口
口口口口
口口口 |②---|
口口口口 |----|
32
口口⑦口 |①-②-|
⑥口口③ |③---|
口⑤口② |④-⑤-|
④口口① |⑥-⑦-|
33
③②口① |①---|
口口口口 |--②-|
口口口口 |③---|
口口口口 |----|
34
口①①① |①---|
②②②口 |②---|
口③③③ |③---|
口④④口 |④---|
35
口口 |①---|
口口 |----|
口口 |----|
口口 |----|
36
口口 |----|
口口口口 |----|
口②②口 |①---|
口口口口 |②---|
37
口口口口 |①---|

口口口口
口口口口

②口口口
口口口 |②---|
口 |③---|
口口口口

口口⑤口
口口口口
口口口
口口口④ |④-⑤-|
38
口口口口 |①-②-|
口①口口 |③---|
④④②口 |----|
口③口口 |--④-|
39
③口口③ |①---|
④②②④ |②-③-|
口口①① |--④-|
口口口口 |----|
40
口口口口 |①---|
口 |----|



口口口口
口口口口
③口口③ |②---|
口 |③---|
41
口口口口 |①---|

口口口口
口口口口

②口口口
口口口 |②---|
口 |③---|
口口口口

口口口口
口口口口
口口口
口口口④ |④---|
42
口口①口 |①-②-|
口②口口 |③---|
口④③口 |----|
口口口口 |--④-|
43
②②③③ |①---|
④口口④ |②-③-|
口口①口 |--④-|
口口口口 |----|
44
口口口口 |①---|
口 |----|



口口口③
口口口④
④口口口 |②---|
口 |③-④-|
45
口②③口 |①---|
①口口④ |--②-|
④口口① |③---|
口③②口 |④---|
46
口口口口 |①---|
口 |----|

口口口口

口③④口
口口口
口口口 |②---|
口④③口 |③-④-|
47
口口口① |①---|
③④口② |--②-|
②口④③ |③---|
①口口口 |④---|
48
|①---|
口口口口 |----|
口口口口


口口口
④口④口
口③口口 |②---|
口口口 |③-④-|
49
口①④口 |①---|
口②口③ |--②-|
口口④口 |③--④|
口口口口 |----|
50
口③口口 |①---|
②①④口 |----|
口口口口 |--②-|
口口口口 |③-④-|
51
口口口① |①---|
口口口口 |--②-|
口②口口
口口口口

口口口④
口口口口
口口口口 |③---|
④口③口 |④---|
52
口口口口 |①---|
口 |----|

口口口口

③④口口
口口口
口口口 |②---|
口口④③ |③-④-|
53
口④①口 |①---|
③口口② |--②-|
②口口③ |③---|
口①④口 |④---|
54
口口口 |①---|
口 |----|

口口

口口
③口口口
口口口③ |②---|
口口 |③---|
55
口口②口 |①---|
口口口① |--②-|
①口口口
口②口口

口③口口
口口口④
④口口口 |③---|
口口③口 |④---|
56
口口口口 |①---|
口 |----|

口口口口

口口口口
口口口
口口③ |②---|
口口口口 |--③-|
57
口④④口 |①---|
口②③口 |②-③-|
口①口口 |----|
口口口口 |④---|
58
口 |①---|
② |②-③-|

口①①口

口口口口
口口口口
口 |----|
口口口口 |④---|
59
②②①① |①-②-|
④④③③ |③-④-|
口口口口 |⑤---|
⑥⑥⑤⑤ |⑥---|
60
口 |①---|
口 |----|

口口口口

口口口口
口口口口
口 |----|
口口口口 |②---|
61
③④口 |①--②|
②口口 |--③-|
口⑤口 |④--⑤|
①⑥口 |--⑥-|
62
③④口 |①--②|
②口口 |--③-|
口⑤口 |④--⑤|
①⑥ |--⑥-|
63
③④口 |①--②|
②口口 |--③-|
口⑤口 |④--⑤|
①⑥ |--⑥-|
64
③④口口 |①--②|
②口口口 |--③-|
口⑥⑤口 |④---|
①口口 |⑤-⑥-|
65
口⑥① |①--②|
口⑤口 |--③-|
口口② |④--⑤|
口④③ |--⑥-|
66
⑥① |①--②|
⑤口 |--③-|
口② |④--⑤|
④③ |--⑥-|
67
口⑥① |①--②|
口⑤口 |--③-|
口口② |④--⑤|
④③ |--⑥-|
68
口口⑥① |①--②|
口口⑤口 |--③-|
口口口② |④--⑤|
口④③ |--⑥-|
69
口口口口 |①---|
①口口① |----|
①口口① |----|
口口口口 |----|

不確定度: 0

最終更新:2015年11月06日 21:58