君をのせて feat.sayurina [2]
新井大樹

EXTREME

Level: 8
BPM: 140
Notes: 673

1
口口口口 |----|
口口口口 |----|
口口口口 |----|
口口口口 |----|
2
⑤⑤⑩⑩ |①②③④|
⑦①②⑥ |--⑤-|
⑨③④⑧ |⑥⑦⑧⑨|
口口口口 |--⑩-|
3
口口口口 |①②③④|
⑦①②⑥ |--⑤-|
⑨③④⑧ |⑥⑦⑧⑨|
⑤⑤⑩⑩ |--⑩-|
4
⑤⑤⑩⑩ |①②③④|
⑦①②⑥ |--⑤-|
⑨③④⑧ |⑥⑦⑧⑨|
口口口口 |--⑩-|
5
口口口口 |①②③④|
⑦①②⑥ |--⑤-|
⑨③④⑧ |⑥⑦⑧⑨|
⑤⑤⑩⑩ |--⑩-|
6
⑤⑤⑩⑩ |①②③④|
⑨③④⑧ |--⑤-|
⑦①②⑥ |⑥⑦⑧⑨|
口口口口 |--⑩-|
7
口口口口 |①②③④|
⑨③④⑧ |--⑤-|
⑦①②⑥ |⑥⑦⑧⑨|
⑤⑤⑩⑩ |--⑩-|
8
⑤⑤⑩⑩ |①②③④|
⑨③④⑧ |--⑤-|
⑦①②⑥ |⑥⑦⑧⑨|
口口口口 |--⑩-|
9
口口口口 |①②③④|
⑨③④⑧ |--⑤-|
⑦①②⑥ |⑥⑦⑧⑨|
⑤⑤⑩⑩ |--⑩-|
10
⑥⑤②③ |①--②|
口④①口 |--③-|
口①④口 |④--⑤|
③②⑤⑥ |--⑥-|
11
口口④口 |①--②|
②口①③ |--③-|
③①⑥② |④---|
口④⑤口 |⑤-⑥-|
12
口口口口 |①---|

口口口口
口口口口

口口口口
口口口 |②-③-|
口口口口
口③口口

口口口口

口④口口 |④---|
口口口口 |⑤---|
13
|①--②|
口口口 |--③-|
口②口口
口③口口

口口口
口口口口
⑤口口口 |④--⑤|
④口⑥口 |⑥---|
14
口口口口 |①---|

口口口口
口口口口

口口口口
口口口 |②-③-|
口口口口
口③口口

口口口口

口④口口 |④---|
口口口口 |⑤---|
15
|①--②|
口口口 |--③-|
口②口口
口③口口

口口口
口口口口
⑤口口⑦ |④--⑤|
④口口⑥ |⑥-⑦-|
16
口口口口 |①--②|

口②口口
口口口口

口口口⑦
|③-④-|
⑤口⑧口 |⑤-⑥⑦|
口④口口 |--⑧-|
17
口③口口 |①--②|
②口口 |--③-|
口口口口


④口口口
⑦⑦口口
⑤口口⑥ |④-⑤-|
口⑤⑥ |⑥-⑦-|
18
口②②口 |①---|
口口①① |--②-|
口③③口 |③---|
口④④口 |④---|
19
②⑩⑨① |①②③④|
④⑫⑪③ |⑤⑥⑦⑧|
⑥口⑭⑤ |⑨⑩⑪⑫|
⑧口⑬⑦ |⑬-⑭-|
20
口口口 |①--②|
口口口
②口口
口口口口

口口口
口口 |③-④-|
口口口口 |⑤---|
④⑤口口 |⑥---|
21
口口口③ |①--②|
口口② |--③-|
口口口口


口口口口
口口口口
口口⑦④ |④--⑤|
⑥口⑤ |⑥-⑦-|
22
口口口 |①--②|
口口口
口口②
口口口口


口口口口 |③-④-|
口口口口 |⑤---|
口口⑤④ |⑥---|
23
口口 |①--②|
口②口口 |--③-|
口口口口


口口口口
口口口口
④口口口 |④--⑤|
⑤⑥口 |--⑥-|
24
口③②口 |①---|
③④④② |②-③-|
口①口口 |----|
口口口口 |④---|
25
口④④口 |①--②|
③口口③ |--③-|
口②②⑤ |④--⑤|
口①①⑥ |--⑥-|
26
①口口④ |①-②-|
②①④口 |③-④-|
③②口口
口③口口

口口口口
⑥⑥口⑤
口口⑤口 |⑤---|
口口口口 |⑥---|
27
|①--②|
口口口② |--③-|

口口口③

口口口
⑦口④口
⑤⑨⑥ |④⑤⑥⑦|
口口⑧口 |⑧-⑨-|
28
|①--②|
口口口口
口②口口
口口口口

口口④
口口口口 |③-④-|
口口口口 |⑤---|


口口口口

口口口口
口口口 |⑥---|
29
口口口③ |①--②|
口口② |--③-|
口口口口


口口④口
口口口口
口⑤口⑦ |④--⑤|
⑥口 |⑥-⑦-|
30
|①--②|
口口口口
口口②口
口口口口

口口口
口④口口 |③-④-|
口口口口 |⑤---|


口口口口

口口口口
口口口 |⑥---|
31
口口口口 |①--②|
口口口

口口口口

④⑤口口
口口口口 |③-④-|
口口⑥ |⑤--⑥|
口口⑦口 |--⑦-|
32
口口口口 |①-②-|
③口口口 |③---|
②口口口
①口口口

口口口口
口口口⑥
⑦⑦⑤口 |④-⑤-|
口口口④ |⑥-⑦-|
33
口口 |①--②|
口口
口口口②
口口口口

口口
口口口口 |③-④-|
口口⑦口 |⑤--⑥|
⑤⑤⑥④ |--⑦-|
34
口①①① |①---|
②②②口 |②---|
口③③③ |③---|
口④④口 |④---|
35
|①---|
|----|
口口 |----|
口口 |----|
36
|----|
口口口口 |----|
口②②口 |①---|
口口口口 |②---|
37
口口口口 |①---|
口口口①
口口口口



口②②口 |②---|
③口口口 |③---|
口口口

口⑤口
口口口⑤
口口口口
口④④口 |④-⑤-|
38
口①口口 |①-②-|
①⑥⑥口 |③---|
口③②口 |④---|
③⑤④② |⑤-⑥-|
39
口②②口 |①---|
④口口④ |②-③-|
口①①口 |--④-|
③口口③ |----|
40
① |①---|
口 |----|




口口口口
口③③口 |②---|
口口口口 |③---|
41
口口口口 |①---|
①口口口
口口口口



口②②口 |②---|
口口口③ |③---|
口口口

口口口
口口口口
口口口口
口④④口 |④---|
42
口口①口 |①-②-|
①口②口 |③---|
②口③口
③口口口

口口口口
口口口口
口⑥⑥口 |④---|
口口⑤④ |⑤-⑥-|
43
口③②口 |①---|
③①①② |②-③-|
口④④口 |--④-|
口口口口 |----|
44
口口 |①---|
口口 |----|
口口
①①

口口③口
口口口④
④口口口 |②---|
③口 |③-④-|
45
口③④口 |①--②|
①口②⑤ |--③-|
⑤口口① |④---|
口④③口 |⑤---|
46
口口口口 |①--②|
口 |--③-|
口口口①
口口③②

口口⑥口
口口⑤
⑤口④口 |④---|
口⑥口口 |⑤-⑥-|
47
口①⑤口 |①--②|
③口口④ |--③-|
④口②③ |④---|
口⑤①口 |⑤---|
48
口口 |①--②|
口口 |--③-|
②③
口口①口

⑤口
口口口⑥
⑥口口口 |④---|
口⑤口④ |⑤-⑥-|
49
口口口口 |①---|


口口口口

口③④口
口口⑤ |②-③-|
⑤口口 |④--⑤|
口④③口 |----|
50
口口口口 |①--②|
口 |--③-|
口口口①
口口③②

口口⑤⑥
口⑥⑤
⑦口④口 |④-⑤-|
口⑦口口 |⑥-⑦-|
51
①口口口 |①--②|
口①口口 |--③-|
口⑤⑤② |④---|
③④④③ |⑤---|
52
②口口① |①②③④|
④口口③ |⑤⑥⑦⑧|
⑥口口⑤
⑧口口⑦

口⑪口口
⑫口⑨口
口口⑩⑫ |⑨-⑩-|
口口⑪口 |⑪-⑫-|
53
口④③口 |①--②|
⑤②口① |--③-|
①口口⑤ |④---|
口③④口 |⑤---|
54
口口口口 |①--②|
|--③-|
①口口口
②③口口

口⑥口口
⑤口口
口④口⑤ |④---|
口口⑥口 |⑤-⑥-|
55
口⑤①口 |①--②|
④口口③ |--③-|
③口②④ |④---|
口①⑤口 |⑤---|
56
口口口 |①--②|
口口口 |--③-|
③口
②①口口

口口
口口⑥口
口④口口 |④--⑤|
口⑤口口 |--⑥-|
57
①②②口 |①---|
口①口口 |②-③-|
口口口口


口口口口
⑤口口⑤
口口口口 |--④-|
口 |⑤---|
58
②口口① |①-②-|
口④③口 |③-④-|
口②①口 |----|
④口⑤③ |⑤---|
59
③口口① |①-②-|
④①③② |③-④-|
⑥②④⑤ |⑤---|
口⑤⑥口 |⑥---|
60
① |①---|
口 |----|
口口
口口口


口口口口
口口口口 |----|
口口口口 |②---|
61
③口口 |①--②|
口②口 |--③-|
①③口
②①口

口④口口
④⑥口口
⑤口口口 |④--⑤|
⑥⑤口口 |--⑥-|
62
①② |①--②|
②口口 |--③-|
③①
口③

⑤⑥口口
⑥④口口
口⑤口口 |④--⑤|
④口口口 |--⑥-|
63
③口 |①--②|
口②口 |--③-|
①③口
②①口

口④口口
④⑥口口
⑤口口口 |④--⑤|
⑥⑤口口 |--⑥-|
64
①②口口 |①--②|
②口口口 |--③-|
③①口口
口③口口

口口⑤
⑥④口⑥
口⑤口口 |④---|
④口口口 |⑤-⑥-|
65
口口③ |①--②|
口②口 |--③-|
口③①
口①②

口口④口
口口⑥④
口口口⑤ |④--⑤|
口口⑤⑥ |--⑥-|
66
②① |①--②|
口② |--③-|
①③
③口

口口⑥⑤
口口④⑥
口口⑤口 |④--⑤|
口口口④ |--⑥-|
67
口③ |①--②|
口②口 |--③-|
口③①
口①②

口口④口
口口⑥④
口口口⑤ |④--⑤|
口口⑤⑥ |--⑥-|
68
口口②① |①--②|
口口口② |--③-|
口口①③
口口③口

口⑥⑤
口口④⑥
口口⑤口 |④--⑤|
口口口④ |--⑥-|
69
口口口口 |①---|
①①口口 |----|
口口口口 |----|
①①口口 |----|

不確定度: 0

最終更新:2015年11月06日 21:55