freaky freak
kamome sano

BASIC

Level: 5
BPM: 145
Notes: 395

1
①②③④ |①---|
口口口口 |②---|
口口口口 |③---|
口口口口 |④---|
2
口口口口 |①---|
口口口① |----|
口口口口 |----|
口口口口 |----|
3
口口口口 |①---|
口口口口 |②---|
口口口口 |③---|
④③②① |④---|
4
口口口口 |①---|
口口口口 |----|
①口口口 |----|
口口口口 |----|
5
口口口口 |①---|
口②①口 |②---|
口④③口 |③---|
口口口口 |④---|
6
口口口口 |①---|
②口口① |②---|
④口口③ |③---|
口口口口 |④---|
7
口口口口 |①---|
口口口口 |②---|
口④③口 |③---|
口②①口 |④---|
8
口口口口 |①---|
口口口口 |②---|
④口口③ |③---|
②口口① |④---|
9
④口③③ |①---|
②口①① |②---|
口口口口 |③---|
口口口口 |④---|
10
口口口口 |①---|
口口口口 |②---|
②口①① |③---|
④口③③ |④---|
11
口口口口 |①---|
④口③③ |②---|
②口①① |③---|
口口口口 |④---|
12
②口①① |①---|
④口③③ |②---|
口口口口 |③---|
口口口口 |④---|
13
口④④口 |①---|
口③③口 |②---|
口②②口 |③---|
口①①口 |④---|
14
④口口④ |①---|
③口口③ |②---|
②口口② |③---|
①口口① |④---|
15
口口①口 |①---|
口②口口 |②---|
口口③口 |③---|
口④口口 |④---|
16
口口口口 |①---|
口口口口 |②---|
④③②① |③---|
④③②① |④---|
17
③③④④ |①---|
③③④④ |②---|
口口②① |③---|
口口②① |④---|
18
口口口口 |①---|
口口口口 |②---|
口口③口 |③---|
①②③④ |④---|
19
口口口口 |①---|
④③②① |②---|
口③口口 |③---|
口口口口 |④---|
20
①②③④ |①---|
口口③口 |②---|
口口口口 |③---|
口口口口 |④---|
21
口口口口 |①---|
口③口口 |②---|
④③②① |③---|
口口口口 |④---|
22
口口口口 |①---|
口口口口 |②---|
③口④③ |③---|
口②①口 |④---|
23
③④口③ |①---|
口①②口 |②---|
口口口口 |③---|
口口口口 |④---|
24
口口④口 |①---|
口③③口 |②---|
口口②口 |③---|
口口①口 |④---|
25
口⑥⑤④ |①-②-|
口⑥⑤④ |③---|
①②③口 |④-⑤-|
①②③口 |⑥---|
26
口口口口 |①---|
口口③口 |②---|
①口口口 |③---|
口②③④ |④---|
27
口口口口 |①---|
④③口① |②---|
口口②口 |③---|
口③口口 |④---|
28
①②③口 |①---|
口口口④ |②---|
口口③口 |③---|
口口口口 |④---|
29
口③口口 |①---|
④口②口 |②---|
口③口① |③---|
口口口口 |④---|
30
口口口口 |①---|
口口口口 |②---|
③口④③ |③---|
口②①口 |④---|
31
③④口③ |①---|
口①②口 |②---|
口口口口 |③---|
口口口口 |④---|
32
口口①口 |①---|
口②②口 |②---|
口③③口 |③---|
口口④口 |④---|
33
①②③口 |①-②-|
①②③口 |③---|
口⑥⑤④ |④-⑤-|
口⑥⑤④ |⑥---|
34
口口口口 |①---|
口口口口 |----|
②口口口 |②---|
①口口口 |----|
35
口口口口 |①---|
口口口口 |----|
口口口② |②---|
口口口① |----|
36
口口口口 |①---|
口口口口 |----|
口②口口 |②---|
口①口口 |----|
37
口口口口 |----|
①①①① |----|
口口口口 |----|
口口口口 |①---|
38
口口口① |①---|
口口口② |----|
口口口口 |②---|
口口口口 |----|
39
①口口口 |①---|
②口口口 |----|
口口口口 |②---|
口口口口 |----|
40
口口①口 |①---|
口口②口 |----|
口口口口 |②---|
口口口口 |----|
41
口口口口 |①---|
④④④④ |②---|
口③口口 |③---|
口①②口 |④---|
42
④②③① |①---|
口口口口 |②---|
口口口口 |③---|
口口口口 |④---|
43
口口口口 |①---|
口②①口 |②---|
口④③口 |③---|
口口口口 |④---|
44
口口口口 |①---|
口口口口 |②---|
口口口口 |③---|
④②③① |④---|
45
口口口口 |①---|
口④③口 |②---|
口②①口 |③---|
口口口口 |④---|
46
口③②口 |①---|
④口口① |②---|
口口口口 |③---|
口口口口 |④---|
47
口口口口 |①---|
口口口口 |②---|
①口口④ |③---|
口②③口 |④---|
48
口④③口 |①---|
②②②② |②---|
口①口口 |③---|
口口口口 |④---|
49
口口口口 |①---|
口口口口 |②---|
④①①④ |③---|
③②②③ |④---|
50
①①②② |①---|
①①②② |②---|
口口口口
口口口口
51
口口④④ |①---|
口口③③ |②---|
②②口口 |③---|
①①口口 |④---|
52
①②口口 |①---|
①②口口 |②---|
口口③④ |③---|
口口③④ |④---|
53
口④③② |①---|
口口①口 |②---|
口①口口 |③---|
②③④口 |④---|
54
①口口口 |①---|
④②③口 |②---|
口③②④ |③---|
口口口① |④---|
55
②②①① |①---|
口口口口 |②---|
口口口口 |③---|
④④③③ |④---|
56
口口口口 |①---|
①③④② |②---|
①③④② |③---|
口口口口 |④---|
57
口口口口 |①---|
③③④④ |②---|
口口口口 |③---|
①①②② |④---|
58
口⑥⑤④ |①-②-|
口⑥⑤④ |③---|
①②③口 |④-⑤-|
①②③口 |⑥---|
59
②口口② |①---|
口口口口 |②---|
③④⑤⑥ |③-④-|
口①①口 |⑤-⑥-|
60
⑤⑥⑦⑧ |①-②-|
①②③④ |③-④-|
口口口口 |⑤-⑥-|
口口口口 |⑦-⑧-|
61
口⑦⑧口 |①-②-|
口⑤⑥口 |③-④-|
口③④口 |⑤-⑥-|
口①②口 |⑦-⑧-|
62
①口口⑧ |①-②-|
⑦口口② |③-④-|
③口口⑥ |⑤-⑥-|
⑤口口④ |⑦-⑧-|
63
口①⑧口 |①-②-|
口⑦②口 |③-④-|
口③⑥口 |⑤-⑥-|
口⑤④口 |⑦-⑧-|
64
①②口口 |①-②-|
口口③④ |③-④-|
⑤⑥口口 |⑤-⑥-|
口口⑦⑧ |⑦-⑧-|
65
口口⑦⑧ |①-②-|
⑤⑥口口 |③-④-|
口口③④ |⑤-⑥-|
①②口口 |⑦-⑧-|
66
口⑥⑤④ |①-②-|
口⑥⑤④ |③---|
①②③口 |④-⑤-|
①②③口 |⑥---|
67
口口口口 |①---|
口口口口 |----|
口①①口 |----|
口①①口 |----|

不確定度: 1

最終更新:2015年11月04日 19:44