超越してしまった彼女と其を生み落した理由
Ayatsugu_Otowa

BASIC

Level: 4
BPM: 178
Notes: 377

1
口口口口 |----|
口口口口 |----|
口口口口 |----|
口口口口 |----|
2
口口口口 |----|
口口口口 |----|
口口口口 |----|
口口口口 |----|
3
口口口口 |①---|
口口口口 |----|
口②口口 |②---|
口①①口 |----|
4
口②口口 |①---|
口①口口 |----|
口口口口 |②---|
口口口口 |----|
5
口口口口 |①---|
口口口口 |----|
口口②口 |②---|
口①①口 |----|
6
口口②口 |①---|
口口①口 |----|
口口口口 |②---|
口口口口 |----|
7
①口口① |①---|
②口口② |----|
口口口口 |②---|
口口口口 |----|
8
口口①口 |①---|
口②口口 |②---|
口口③口 |③---|
口口口口 |----|
9
口口口口 |①---|
口口口口 |----|
口②口口 |②---|
口①①口 |----|
10
口②口口 |①---|
口①口口 |----|
口口口口 |②---|
口口口口 |----|
11
口口口口 |①---|
④③②① |②---|
口口口口 |③---|
口口口口 |④---|
12
口口口口 |①---|
口口口口 |②---|
④③②① |③---|
口口口口 |④---|
13
④③②① |①---|
口口口口 |②---|
口口口口 |③---|
口口口口 |④---|
14
口口口口 |①---|
④③②① |②---|
口口口口 |③---|
口口口口 |④---|
15
口口口口 |①---|
口口口口 |②---|
口口口口 |③---|
④③②① |④---|
16
口口口口 |①---|
口口口口 |②---|
④③②① |③---|
口口口口 |④---|
17
口口口口 |①---|
④③②① |②---|
口口口口 |③---|
口口口口 |④---|
18
口口口口 |①---|
口口口口 |②---|
口口口口 |③---|
④③②① |④---|
19
口口口口 |①---|
口口口口 |②---|
①②③④ |③---|
口口口口 |④---|
20
口口口口 |①---|
①②③④ |②---|
口口口口 |③---|
口口口口 |④---|
21
口口口口 |①---|
口口口口 |②---|
口口口口 |③---|
①②③④ |④---|
22
口口口口 |①---|
口口口口 |②---|
①②③④ |③---|
口口口口 |④---|
23
①②③④ |①---|
口口口口 |②---|
口口口口 |③---|
口口口口 |④---|
24
口口口口 |①---|
口口口口 |②---|
①②③④ |③---|
口口口口 |④---|
25
口口口口 |①---|
口口口口 |②---|
口口口口 |③---|
①②③④ |④---|
26
口①①口 |①--②|
②口口② |--③-|
口③③口 |-④--|
④⑤⑤④ |⑤---|
27
口口口口 |①---|
①②③④ |②---|
口口口口 |③---|
口口口口 |④---|
28
①②③④ |①---|
口口口口 |②---|
口口口口 |③---|
口口口口 |④---|
29
⑤④④⑤ |①--②|
⑥③③⑥ |--③-|
口②②口 |-④--|
口①①口 |⑤--⑥|
30
⑤④④⑤ |--①-|
口③③口 |-②--|
口②②口 |③--④|
口①①口 |--⑤-|
31
口口口口 |①---|
口口口口 |②---|
④③②① |③---|
口口口口 |④---|
32
口口口口 |①---|
④③②① |②---|
口口口口 |③---|
口口口口 |④---|
33
⑤④④⑤ |①--②|
⑥③③⑥ |--③-|
口②②口 |-④--|
口①①口 |⑤--⑥|
34
⑤④④⑤ |--①-|
口③③口 |-②--|
口②②口 |③--④|
口①①口 |--⑤-|
35
口口口口 |①---|
口口口口 |②---|
④③②① |③---|
口口口口 |④---|
36
口口口口 |①---|
④③②① |②---|
口口口口 |③---|
口口口口 |④---|
37
口口口口 |①---|
口口口口 |②---|
口④③口 |③---|
口②①口 |④---|
38
口②①口 |①---|
口④③口 |②---|
口口口口 |③---|
口口口口 |④---|
39
口口口① |①---|
口口口② |②---|
口口口③ |③---|
口口口④ |④---|
40
④口口口 |①---|
③口口口 |②---|
②口口口 |③---|
①口口口 |④---|
41
⑤④④⑤ |①--②|
⑥③③⑥ |--③-|
口②②口 |-④--|
口①①口 |⑤--⑥|
42
④口口④ |--①-|
口③③口 |-②--|
口②②口 |③---|
口①①口 |④---|
43
口②①口 |①---|
②口口① |----|
口口口口 |②---|
口口口口 |----|
44
口口口口 |①---|
口②①口 |②---|
口④③口 |③---|
口口口口 |④---|
45
口②①口 |①---|
②口口① |----|
口口口口 |②---|
口口口口 |----|
46
口④⑤口 |①--②|
口口③口 |--③-|
口②口口 |-④--|
口口①口 |⑤---|
47
口口口口 |①---|
口口②② |----|
①①口口 |②---|
口口口口 |----|
48
口口口口 |①---|
口③③口 |②---|
口②②口 |③---|
口①①口 |----|
49
④③②① |①---|
口口口口 |②---|
口口口口 |③---|
口口口口 |④---|
50
口口口口 |①---|
口①①口 |--②-|
②口口② |----|
口③③口 |③---|
51
口②①口 |①---|
②口口① |----|
口口口口 |②---|
口口口口 |----|
52
口口口口 |①---|
口②①口 |②---|
口④③口 |③---|
口口口口 |④---|
53
口②①口 |①---|
②口口① |----|
口口口口 |②---|
口口口口 |----|
54
口④⑤口 |①--②|
口口③口 |--③-|
口②口口 |-④--|
口口①口 |⑤---|
55
口口口口 |①---|
口口②② |----|
①①口口 |②---|
口口口口 |----|
56
口口口口 |①---|
口③③口 |②---|
口②②口 |③---|
口①①口 |----|
57
④③②① |①---|
口口口口 |②---|
口口口口 |③---|
口口口口 |④---|
58
口口口口 |①---|
口①①口 |--②-|
②口口② |----|
口③③口 |③---|
59
口③②① |①---|
口③②① |--②-|
口口口口 |----|
口口口口 |③---|
60
口口口口 |①---|
口口口口 |--②-|
口③②① |----|
口③②① |③---|
61
口③②① |①---|
口③②① |--②-|
口口口口 |----|
口口口口 |③---|
62
口口口口 |①---|
口口口口 |--②-|
口③②① |----|
口③②① |③---|
63
口③②① |①---|
口③②① |--②-|
口口口口 |----|
口口口口 |③---|
64
口口口口 |①---|
口口口口 |--②-|
口③②① |----|
口③②① |③---|
65
口③②① |①---|
口③②① |--②-|
口口口口 |----|
口口口口 |③---|
66
口口口口 |①---|
口口口口 |----|
口①①口 |----|
口口口口 |----|
67
口口口口 |①---|
口口口口 |----|
口②口口 |②---|
口①口口 |----|
68
口②口口 |①---|
口①口口 |----|
口口口口 |②---|
口口口口 |----|
69
口口①口 |①---|
口口②口 |----|
口口口口 |②---|
口口口口 |----|
70
口口口口 |①---|
口口口口 |----|
口口①口 |②---|
口口②口 |----|
71
①口口① |①---|
②口口② |----|
口口口口 |②---|
口口口口 |----|
72
口口①口 |①---|
口②口口 |②---|
口口③口 |③---|
口口口口 |----|
73
口①口口 |①---|
口口②口 |②---|
口③口口 |③---|
口口④口 |④---|
74
口口口口 |①---|
②口口② |--②-|
①口口① |----|
口口口口 |----|
75
口口②① |①---|
④③口口 |②---|
口口口口 |③---|
口口口口 |④---|
76
口口口口 |①---|
口口口口 |②---|
①②③④ |③---|
口口口口 |④---|
77
口③②口 |①---|
口④口① |②---|
口口口口 |③---|
口口口口 |④---|
78
口口口口 |①---|
口口口口 |②---|
口④①口 |③---|
口口③② |④---|
79
口②①口 |①---|
②口口① |----|
口口口口 |②---|
口口口口 |----|
80
口口口口 |①---|
口③③口 |②---|
口②②口 |③---|
口①①口 |----|
81
口口口① |①---|
②口口口 |②---|
口口口③ |③---|
④口口口 |④---|
82
④口口口 |①---|
口口口③ |②---|
②口口口 |③---|
口口口① |④---|
83
口①①口 |①---|
口②②口 |--②-|
口③③口 |----|
口口口口 |③---|

不確定度: 1

最終更新:2015年11月04日 19:39