Lovesick Lovetune
VALLEYSTONE feat. 紫崎 雪

BASIC

Level: 3
BPM: 135
Notes: 248

1
口口口口 |----|
口口口口 |----|
口口口口 |----|
口口口口 |----|
2
口口口口 |----|
口口口口 |----|
口口口口 |----|
口口口口 |----|
3
口口口口 |----|
口口口口 |----|
口口口口 |----|
口口口口 |----|
4
口口口口 |①---|
①②口口 |----|
口口口口 |②---|
口口口口 |----|
5
口口口口 |①---|
口口①② |----|
口口口口 |②---|
口口口口 |----|
6
口口口口 |①---|
口②②口 |----|
口①①口 |②---|
口口口口 |----|
7
④③②① |①---|
口口口口 |②---|
口口口口 |③---|
口口口口 |④---|
8
口口口口 |①---|
①②口口 |----|
口口口口 |②---|
口口口口 |----|
9
口口口口 |①---|
口口①② |----|
口口口口 |②---|
口口口口 |----|
10
口口口口 |①---|
口②②口 |----|
口①①口 |②---|
口口口口 |----|
11
①口口① |①---|
②口口② |----|
口口口口 |②---|
口口口口 |----|
12
口口口口 |①---|
口②③口 |②---|
口①④口 |③---|
口口口口 |④---|
13
口口口口 |①---|
口②③口 |②---|
口①④口 |③---|
口口口口 |④---|
14
口口口口 |①---|
口②③口 |②---|
口①④口 |③---|
口口口口 |④---|
15
①①②② |①---|
口口口口 |②---|
口口口口 |③---|
③③④④ |④---|
16
口口口口 |①---|
口②③口 |②---|
口①④口 |③---|
口口口口 |④---|
17
口口口口 |①---|
口②③口 |②---|
口①④口 |③---|
口口口口 |④---|
18
口口口口 |①---|
口②③口 |②---|
口①④口 |③---|
口口口口 |④---|
19
①①②② |①---|
口口口口 |②---|
口口口口 |③---|
③③④④ |④---|
20
口口口口 |①---|
口②口口 |----|
①口口口 |②---|
口口口口 |----|
21
口口口口 |①---|
口口口② |----|
口口①口 |②---|
口口口口 |----|
22
口①口口 |①---|
口口②口 |②---|
口③口口 |③---|
口口④口 |④---|
23
口口口口 |①---|
口口口口 |----|
①口口① |----|
口口口口 |----|
24
口口口口 |①---|
口口②口 |----|
口口口① |②---|
口口口口 |----|
25
口口口口 |①---|
②口口口 |----|
口①口口 |②---|
口口口口 |----|
26
口口①口 |①---|
口②口口 |②---|
口口③口 |③---|
口④口口 |④---|
27
口口口口 |①---|
口口口口 |----|
①口口① |----|
口口口口 |----|
28
口口口口 |①---|
①口口② |----|
口①②口 |②---|
口口口口 |----|
29
①口口② |①---|
口①②口 |----|
口口口口 |②---|
口口口口 |----|
30
口①口口 |①---|
口口②口 |②---|
口③口口 |③---|
口口④口 |④---|
31
口口口口 |①---|
口口口口 |----|
①口口① |----|
口口口口 |----|
32
口口口口 |①---|
②口口① |----|
口②①口 |②---|
口口口口 |----|
33
②口口① |①---|
口②①口 |----|
口口口口 |②---|
口口口口 |----|
34
口口①口 |①---|
口②口口 |②---|
口口③口 |③---|
口④口口 |④---|
35
⑤⑤⑤⑤ |①--②|
③口口③ |--③-|
④②②④ |④---|
①口口① |⑤---|
36
口⑥口口 |①---|
③口④⑤ |②---|
口①②口 |③-④⑤|
口①②口 |--⑥-|
37
口口①口 |①-②-|
口②口口 |③-④-|
口⑥③口 |⑤-⑥-|
口④⑤口 |----|
38
口口口口 |①---|
④口②口 |②---|
口③口① |③---|
口口口口 |④---|
39
口④口④ |①---|
③口③口 |②---|
口②口② |③---|
①口①口 |④---|
40
口⑥口口 |①---|
③口④⑤ |②---|
口①②口 |③-④⑤|
口①②口 |--⑥-|
41
口口①口 |①-②-|
口②口口 |③-④-|
口⑥③口 |⑤-⑥-|
口④⑤口 |----|
42
口口口口 |①---|
④口②口 |②---|
口③口① |③---|
口口口口 |④---|
43
口口口口 |①---|
③口③口 |②---|
口②口② |③---|
①口①口 |----|
44
口口口① |①---|
口口口② |②---|
口口口③ |③---|
口口口④ |④---|
45
口口口口 |①---|
口口口口 |----|
口②③口 |②---|
口口①口 |③---|
46
④口⑤⑥ |①-②③|
①口②③ |----|
口口口口 |④-⑤⑥|
口口口口 |----|
47
口①口口 |①---|
口口②口 |②---|
口③口口 |③---|
口口④口 |④---|
48
①口口口 |①---|
②口口口 |②---|
③口口口 |③---|
④口口口 |④---|
49
口口口口 |①---|
口口口口 |----|
口③②口 |②---|
口①口口 |③---|
50
口②②口 |①---|
①口口① |----|
口口口口 |②---|
口口口口 |----|
51
口口口口 |①---|
①口口② |②---|
口①②口 |③---|
口③③口 |----|
52
口口口口 |①---|
口②③口 |②---|
口①④口 |③---|
口口口口 |④---|
53
口口口口 |①---|
口②③口 |②---|
口①④口 |③---|
口口口口 |④---|
54
口口口口 |①---|
口②③口 |②---|
口①④口 |③---|
口口口口 |④---|
55
①①②② |①---|
口口口口 |②---|
口口口口 |③---|
③③④④ |④---|
56
口口口口 |①---|
口②③口 |②---|
口①④口 |③---|
口口口口 |④---|
57
口口口口 |①---|
口②③口 |②---|
口①④口 |③---|
口口口口 |④---|
58
口口口口 |①---|
口②③口 |②---|
口①④口 |③---|
口口口口 |④---|
59
①①②② |①---|
口口口口 |②---|
口口口口 |③---|
③③④④ |④---|
60
口口口口 |①---|
口口口口 |----|
口①①口 |----|
口口口口 |----|

不確定度: 1

最終更新:2015年11月04日 19:33