SWEET HOME PARTY
劇団レコード

ADVANCED

Level: 8
BPM: 134-180
Notes: 445

BPM: 134
1
口口口口 |----|
口口口口 |----|
口口口口 |----|
口口口口
2
①口口口 |①---|
口②口口 |②---|
口口③口 |③---|
口口口口
3
口口口③ |①---|
口口②口 |②---|
口①口口 |③---|
口口口口
4
口口口口 |①---|
口口口① |②---|
口口②口 |③---|
口③口口
5
口口口口 |①---|
③口口口 |②---|
口②口口 |③---|
口口①口
6
口①①口 |①---|
口口口口 |----|
口口口口 |----|
口口口口
7
口口口口 |----|
口口口口 |----|
口口口口 |----|
口口口口
8
⑧口口⑦ |①-②-|
⑥口口⑤ |③-④-|
④口口③ |⑤-⑥-|
②口口① |⑦-⑧-|
9
⑦③③⑤ |①---|
口②②口 |②-③-|
口口口口 |④-⑤-|
⑥①①④ |⑥-⑦-|
10
口⑦⑦口 |①-②-|
口②①口 |③-④-|
口④③口 |⑤-⑥-|
口⑥⑤口 |⑦---|
11
③口口③ |①-②-|
口口口口 |③---|
①口口① |----|
②④④② |④---|
12
①①①① |①---|
口口②口 |②-③-|
口口③口
口口口口

口⑤⑤口
口口口口
口口口口 |④---|
口口④口 |⑤---|
13
口⑦⑦口 |①-②-|
①口口② |③-④-|
③口口④ |⑤-⑥-|
⑤口口⑥ |⑦---|
14
口口口口 |①-②-|
①口口④ |③---|
口②⑤口 |④-⑤-|
口⑥③口 |⑥---|
15
⑦⑤⑤⑥ |①-②-|
①口口② |③-④-|
③口口④ |⑤-⑥-|
⑥口口⑦ |--⑦-|
16
口口口口 |①-②-|
④口口① |③---|
口⑤②口 |④-⑤-|
口③⑥口 |⑥---|
17
⑤⑥⑥⑤ |①-②-|
②口口① |③-④-|
④口口③ |⑤---|
口口口口 |⑥---|
18
⑧口⑤⑤ |①-②-|
⑧④③口 |③-④-|
口①②⑥ |⑤-⑥-|
⑦⑦口⑥ |⑦-⑧-|
19
⑤⑤口口 |①-②-|
口③④口 |③-④-|
⑥②①口 |⑤-⑥-|
⑥口⑦⑦ |⑦---|
20
口②②口 |①-②-|
⑤口口⑥ |--③-|
③①①④ |④-⑤-|
口⑦⑦口 |⑥-⑦-|
21
①口口① |①---|
口②②③ |-②--|
口口口④ |③-④-|
口口口⑤ |⑤---|
22
②⑤⑤口 |①-②-|
④口口口 |--③-|
①口口口 |--④-|
口③口口 |--⑤-|
23
口⑤⑤② |①-②-|
口口口④ |--③-|
口口口① |--④-|
口口③口 |--⑤-|
24
①口口① |①-②-|
口②口④ |-③--|
口③口⑤ |④--⑤|
口④口⑥ |--⑥-|
25
口①①口 |①-②-|
口口②口 |-③--|
口③口口
口口口口

口⑥⑥口
口口口口
口口口口 |④-⑤-|
④口口⑤ |-⑥--|
26
②⑤⑤口 |①-②-|
④口口口 |--③-|
①口口口 |--④-|
口③口口 |--⑤-|
27
口⑤⑤② |①-②-|
口口口④ |--③-|
口口口① |--④-|
口口③口 |--⑤-|
28
①口口① |①-②-|
④口②口 |-③--|
⑤口③口 |④--⑤|
⑥口④口 |--⑥-|
29
⑥①①⑤ |①-②-|
口②口口 |-③--|
口口③口 |④-⑤-|
⑦口口④ |⑥-⑦-|
30
口①口口 |①-②-|
①⑥④口 |③-④-|
③口②⑤ |⑤-⑥-|
口③⑤口
31
⑥③①⑥ |①-②-|
③口口① |③-④-|
口②④口 |⑤-⑥-|
⑤口口⑤
32
口③①口 |①-②-|
③④②① |③-④-|
⑤⑥口口 |⑤-⑥-|
口⑤口口
33
⑥口③⑥ |①-②-|
口口④③ |③-④-|
口口②① |⑤-⑥-|
⑤口①⑤
34
口②②口 |①-②-|
③⑤④⑥ |--③-|
⑥④⑤③ |④-⑤-|
口①①口 |--⑥-|
35
②口口② |①-②-|
③口口口 |--③-|
口口口③
①口口①

BPM: 110
口⑤⑤口
口口口口
口口口口 |④---⑤-|
口④④口

BPM: 103.5
口口口口
口口口口
口口口口
⑥口口⑥ |--⑥---|

BPM: 100
36
①口口① |①---|
口口口口 |----|
口口口口
口口口口

BPM: 134
②②②②
口③口④
口口口口 |②---|
口④口③ |③-④-|
37
口⑤⑤口 |①---|
③口②口 |②-③-|
④①④① |④---|
②口③口 |⑤---|
38
口口口口 |①---|
口③③口 |②-③-|
口②②口
③①①③

④④④④
口口口⑤
口口⑤口 |④---|
口口口口 |--⑤-|
39
②口口口 |①---|
①③口口 |②-③-|
口①口口
口口口口

⑧口口⑧
口口口⑤
口口④⑥ |④-⑤⑥|
口口口⑦ |⑦-⑧-|
40
口口⑥口 |①-②-|
①③②⑤ |③---|
口③④口 |--④-|
②③①口 |⑤-⑥-|

BPM: 144
41
口口口口 |①-②-|
口④②口 |③-④-|
①口口③
口①③口

BPM: 150
口⑦⑤口
⑦口口⑤
口⑥⑧口 |⑤-⑥-|
口口口口 |⑦-⑧-|

BPM: 154
42
口口口② |①---|
口口③口 |②-③-|
口口口口
①①①①

BPM: 160
口⑧⑧口
⑤口口口
⑥④口口 |④-⑤⑥|
⑦口口口 |⑦-⑧-|

BPM: 164
43
①口口① |①---|
口⑦②口 |②-③-|
口③⑥口 |④-⑤-|
④口口⑤ |⑥-⑦-|

BPM: 174
44
口口口① |①-②-|
②口口口 |③-④-|
口口口③
④口口口

口⑤⑤⑥
口口⑦口
口口口口 |⑤---|
口口口口 |⑥-⑦-|

BPM: 180
45
⑦⑦⑦⑦ |①---|
⑤口口④ |②-③-|
③①口② |④-⑤-|
口⑥⑥口 |⑥-⑦-|

口口口口 |----|
口口口口 |----|
口口口口 |----|
口口口口

BPM: 70
46
口口口口 |①-②-|
口①口口
口②口口
口口口口

BPM: 80
口④④口
口口口口 |③-④-|
口口口口
口③口口

BPM: 95
口口口口
口口⑤口
口口⑥口 |⑤-⑥-|
口口口口

BPM: 100
⑧口口⑧
口口口口
口口口口
口口⑦口 |⑦-⑧-|

BPM: 115
47
口口口口 |①-②-|
口②①口 |③-④-|
口④③口
口口口口

BPM: 120
口⑦⑦口
口口口口
口口口口 |⑤-⑥-|
口⑥⑤口 |⑦---|

BPM: 134
48
口口口口 |①-②-|
①口口口 |③---|
口②口口
口口③口

BPM: 140
口口口口
口口口④
口口⑤口 |④-⑤-|
口⑥口口 |⑥---|

BPM: 144
49
口口口口 |①-②-|
①口口② |③-④-|
③口口④
口口口口

BPM: 150
⑦⑤⑤⑥
口口口口
口口口口 |⑤-⑥-|
⑥口口⑦ |--⑦-|

BPM: 154
50
口口口口 |①-②-|
口口口① |③---|
口口②口
口③口口

BPM: 158
口口口口
④口口口
口⑤口口 |④-⑤-|
口口⑥口 |⑥---|

口口口口 |⑦-⑧-|
口口口口 |⑨-⑩-|
⑧口口⑦
⑩口口⑨
51
①①①① |①---|
口口口口 |②-③-|
③口口②
口口口口

⑦口口⑥
⑤口口④
口口口口 |④-⑤-|
口口口口 |⑥-⑦-|
52
⑦③③⑤ |①---|
口②②口 |②-③-|
口口口口 |④-⑤-|
⑥①①④ |⑥-⑦-|
53
口⑦⑦口 |①-②-|
口②①口 |③-④-|
口④③口 |⑤-⑥-|
口⑥⑤口 |⑦---|
54
③口口③ |①-②-|
口口口口 |③---|
①口口① |----|
②④④② |④---|
55
①①①① |①---|
②口口② |----|
②口口② |②---|
口口口口 |----|

不確定度: 0

最終更新:2016年04月25日 04:07