漆黒のスペシャルプリンセスサンデー
日向美ビタースイーツ♪

BASIC

Level: 3
BPM: 200
Notes: 308

1
口口口口 |----|
口口口口 |----|
口口口口 |----|
口口口口 |----|
2
口口口口 |①---|
①口口口 |----|
口口口口 |----|
口口口口 |----|
3
口口口口 |①---|
口①口口 |----|
口口口口 |----|
口口口口 |----|
4
口口口口 |①---|
口口口① |----|
口口口口 |----|
口口口口 |----|
5
口口口口 |①---|
口口①口 |----|
口口口口 |----|
口口口口 |----|
6
口口口口 |①---|
口口口口 |----|
①口口口 |----|
口口口口 |----|
7
口口口口 |①---|
口口口口 |----|
口①口口 |----|
口口口口 |----|
8
口口口口 |①---|
口口口口 |----|
口口口① |----|
口口口口 |----|
9
口口口口 |①---|
③口口③ |----|
②口口② |--②-|
口①①口 |--③-|
10
口口口口 |----|
口口口口 |----|
口口口口 |----|
口口口口 |----|
11
口口口口 |①---|
③口口③ |----|
②口口② |--②-|
口①①口 |--③-|
12
口口口口 |----|
口口口口 |----|
口口口口 |----|
口口口口 |----|
13
口口口口 |①---|
③口口③ |----|
②口口② |--②-|
口①①口 |--③-|
14
口口口口 |----|
口口口口 |----|
口口口口 |----|
口口口口 |----|
15
口口口口 |①---|
③口口③ |----|
②口口② |--②-|
口①①口 |--③-|
16
口口口口 |----|
口口口口 |----|
口口口口 |----|
口口口口 |----|
17
④口口④ |①---|
口口口口 |②---|
①②③口 |③---|
口口口口 |--④-|
18
口口口口 |----|
口口口口 |----|
口口口口 |----|
口口口口 |----|
19
④口口④ |①---|
口口口口 |②---|
口③②① |③---|
口口口口 |--④-|
20
口口口口 |----|
口口口口 |----|
口口口口 |----|
口口口口 |----|
21
口口口口 |--①-|
①口口① |----|
口口口口 |----|
口口口口 |----|
22
口口口口 |①---|
口口口② |----|
口①①口 |②---|
口口口口 |----|
23
口口口口 |①---|
口②①口 |----|
口口口口 |②---|
口口口口 |----|
24
②口口口 |①---|
①口口口 |----|
口口口口 |②---|
口口口口 |----|
25
口①口口 |①---|
口口口口 |----|
口口口口 |----|
口口口口 |----|
26
口口口口 |①---|
②口口口 |----|
口①①口 |②---|
口口口口 |----|
27
口口口口 |①---|
口①②口 |----|
口口口口 |②---|
口口口口 |----|
28
口口口② |①---|
口口口① |----|
口口口口 |②---|
口口口口 |----|
29
口口①口 |①---|
口口口口 |----|
口口口口 |----|
口口口口 |----|
30
②口口口 |①---|
口①①口 |----|
口口口口 |②---|
口口口口 |----|
31
口口口口 |①---|
①口口口 |----|
②口口口 |②---|
口口口口 |----|
32
口口口口 |①---|
口口口口 |----|
口口口口 |②---|
①②口口 |----|
33
口口口口 |①---|
口口口口 |----|
口①口口 |----|
口口口口 |----|
34
口口口② |①---|
口①①口 |----|
口口口口 |②---|
口口口口 |----|
35
口口口口 |①---|
口口口① |----|
口口口② |②---|
口口口口 |----|
36
口口口口 |①---|
口口口口 |----|
口口口口 |②---|
口口②① |----|
37
口口口口 |①---|
口口口口 |----|
口口①口 |----|
口口口口 |----|
38
①①口口 |①---|
②②口口 |----|
口口口口 |②---|
口口口口 |----|
39
口口口口 |①---|
口口口口 |----|
①①口口 |②---|
②②口口 |----|
40
口口①① |①---|
口口②② |----|
口口口口 |②---|
口口口口 |----|
41
口口口口 |①---|
口口口口 |----|
口口①① |②---|
口口②② |----|
42
口口口口 |①---|
口口口口 |----|
口口②② |②---|
①①口口 |----|
43
口口②② |①---|
①①口口 |----|
口口口口 |②---|
口口口口 |----|
44
①①口口 |①---|
口口②② |----|
口③③口 |②---|
口口口口 |--③-|
45
口口口口 |----|
口口口口 |----|
口口口口 |----|
口口口口 |----|
46
口口口口 |①---|
①口口① |----|
①②口① |②---|
口口口口 |----|
47
口②口口 |①---|
口①口口 |----|
口口口口 |②---|
口口口口 |----|
48
口口①口 |①---|
口口②口 |----|
口口口口 |②---|
口口口口 |----|
49
口口口口 |①---|
口口口口 |----|
口口①口 |②---|
口口②口 |----|
50
口口口口 |①---|
口口口口 |----|
②口口口 |②---|
①口口口 |----|
51
②口口口 |①---|
①口口口 |----|
口口口口 |②---|
口口口口 |----|
52
口口口口 |①---|
口①①口 |----|
口②②口 |②---|
口口口口 |----|
53
④③②① |①---|
口口口口 |②---|
口口口口 |③---|
口口口口 |④---|
54
口口口口 |①---|
①②③④ |②---|
口口口口 |③---|
口口口口 |④---|
55
口口口口 |①---|
口口口口 |②---|
④③②① |③---|
口口口口 |④---|
56
口口口口 |①---|
口口口口 |②---|
口口口口 |③---|
①②③④ |④---|
57
口口口口 |①---|
口②②口 |----|
口①①口 |②---|
口口口口 |----|
58
口口口口 |①---|
①口口① |----|
②口口② |②---|
口口口口 |----|
59
口④口口 |①---|
口③口口 |②---|
口②口口 |③---|
口①口口 |④---|
60
口口①口 |①---|
口口②口 |②---|
口口③口 |③---|
口口④口 |④---|
61
①①口口 |①---|
②②口口 |----|
口口口口 |②---|
口口口口 |----|
62
口口口口 |①---|
口口口口 |----|
①①口口 |②---|
②②口口 |----|
63
口口①① |①---|
口口②② |----|
口口口口 |②---|
口口口口 |----|
64
口口口口 |①---|
口口口口 |----|
口口①① |②---|
口口②② |----|
65
①①口口 |①---|
口口②② |----|
口③③口 |②---|
口口口口 |--③-|
66
口口口口 |----|
口口口口 |----|
口口口口 |----|
口口口口 |----|
67
口口口口 |①---|
口口口口 |----|
②②口口 |----|
口①口口 |--②-|
68
口口口口 |----|
口口口口 |----|
口口口口 |----|
口口口口 |----|
69
口口②② |①---|
口口①口 |----|
口口口口 |----|
口口口口 |--②-|
70
口口口口 |----|
口口口口 |----|
口口口口 |----|
口口口口 |----|
71
口口口口 |①---|
口口口口 |----|
②②口口 |----|
口①口口 |--②-|
72
口口口口 |----|
口口口口 |----|
口口口口 |----|
口口口口 |----|
73
口口②② |①---|
口口①口 |----|
口口口口 |----|
口口口口 |--②-|
74
口口口口 |----|
口口口口 |----|
口口口口 |----|
口口口口 |----|
75
口④口口 |①---|
口③口口 |②---|
口②口口 |③---|
口①口口 |④---|
76
口口①口 |①---|
口口②口 |②---|
口口③口 |③---|
口口④口 |④---|
77
口口口口 |①---|
③口口④ |②---|
①口口② |③---|
口口口口 |④---|
78
口口口口 |①---|
口③④口 |②---|
口①②口 |③---|
口口口口 |④---|
79
①口口② |①---|
③口口④ |②---|
口口口口 |③---|
口口口口 |④---|
80
口口口口 |①---|
口口口口 |----|
口①①口 |----|
口口口口 |----|
81
口①口口 |①---|
②口口口 |②---|
③口口口 |③---|
口④口口 |④---|
82
口口④口 |①---|
口口口③ |②---|
口口口② |③---|
口口①口 |④---|
83
口口口口 |①---|
口①②口 |②---|
口③④口 |③---|
口口口口 |④---|
84
口口口口 |①---|
①口口① |----|
口口口口 |----|
口口口口 |----|
85
口口口① |①---|
口口②口 |②---|
口③口口 |③---|
④口口口 |④---|
86
④口口口 |①---|
口③口口 |②---|
口口②口 |③---|
口口口① |④---|
87
口口①口 |①---|
口口②口 |②---|
口③口口 |③---|
口④口口 |④---|
88
口口口口 |①---|
口口口口 |----|
①口口① |----|
口口口口 |----|
89
③④口口 |①---|
②口口口 |②---|
①①口口 |③---|
口口口口 |④---|
90
口口④③ |①---|
口口口② |②---|
口口①① |③---|
口口口口 |④---|
91
口口口口 |①---|
③①①③ |②---|
④②②④ |③---|
口口口口 |④---|
92
口口口口 |①---|
③①①③ |②---|
④②②④ |③---|
口口口口 |④---|
93
①口口② |①---|
③口口④ |②---|
口口口口 |③---|
口口口口 |④---|
94
口口口口 |①---|
口口口口 |----|
口①①口 |----|
口口口口 |----|
95
口口口口 |①---|
口口口口 |②---|
口口口口 |③---|
①②③④ |④---|
96
口口口口 |①---|
口①①口 |----|
口①①口 |----|
口口口口 |----|
97
④③②① |①---|
口口口口 |②---|
口口口口 |③---|
口口口口 |④---|
98
口口口口 |①---|
口①①口 |----|
口①①口 |----|
口口口口 |----|
99
口口口口 |①---|
口口口口 |②---|
口口口口 |③---|
①②③④ |④---|
100
口口口口 |①---|
口①①口 |----|
口①①口 |----|
口口口口 |----|
101
④③②① |①---|
口口口口 |②---|
口口口口 |③---|
口口口口 |④---|
102
口口口口 |①---|
口①①口 |----|
口①①口 |----|
口口口口 |----|
103
口口口口 |----|
口③②口 |①---|
口①①口 |②-③-|
口口口口 |----|

不確定度: 1

最終更新:2015年11月03日 00:20