漆黒のスペシャルプリンセスサンデー
日向美ビタースイーツ♪

ADVANCED

Level: 6
BPM: 200
Notes: 515

1
口口口口 |----|
口口口口 |----|
口口口口 |----|
口口口口 |----|
2
口口口口 |①---|
口口口口 |②---|
③口口④ |③---|
①口口② |④---|
3
③口口④ |①---|
①口口② |②---|
口口口口 |③---|
口口口口 |④---|
4
口口口口 |①---|
口口口口 |②---|
口③④口 |③---|
口①②口 |④---|
5
口③④口 |①---|
口①②口 |②---|
口口口口 |③---|
口口口口 |④---|
6
②口口① |①---|
④口口③ |②---|
口口口口 |③---|
口口口口 |④---|
7
口口口口 |①---|
口口口口 |②---|
②口口① |③---|
④口口③ |④---|
8
口④口口 |①---|
口③口口 |②---|
口口②口 |③---|
口口①口 |④---|
9
④口口④ |①-②-|
口口①口 |③---|
口②口口 |--④-|
⑤口③⑤ |--⑤-|
10
口口口口 |----|
口口口口 |----|
口口口口 |----|
口口口口 |----|
11
④口口④ |①-②-|
口①口口 |③---|
口口②口 |--④-|
⑤③口⑤ |--⑤-|
12
口口口口 |----|
口口口口 |----|
口口口口 |----|
口口口口 |----|
13
④口口④ |①-②-|
口口①口 |③---|
口②口口 |--④-|
⑤口③⑤ |--⑤-|
14
口口口口 |----|
口口口口 |----|
口口口口 |----|
口口口口 |----|
15
④口口④ |①-②-|
口①口口 |③---|
口口②口 |--④-|
⑤③口⑤ |--⑤-|
16
口口口口 |----|
口口口口 |----|
口口口口 |----|
口口口口 |----|
17
口⑥⑦口 |①-②-|
⑥②①⑦ |③-④-|
口④③口 |⑤-⑥-|
口口⑤口 |--⑦-|
18
⑤口口⑤ |--①-|
口口口口 |②-③-|
口口口口 |④---|
①②③④ |⑤---|
19
口⑦⑥口 |①-②-|
⑦①②⑥ |③-④-|
口③④口 |⑤-⑥-|
口⑤口口 |--⑦-|
20
⑤口口⑤ |--①-|
口口口口 |②-③-|
口口口口 |④---|
④③②① |⑤---|
21
口口口口 |①-②-|
口②口口 |--③-|
口③①口 |----|
口口口口 |----|
22
口口口② |①---|
口③口口 |--②-|
口口口口 |----|
口口口① |--③-|
23
口口口口 |----|
口口口口 |①---|
口③②① |②---|
口口口口 |③---|
24
④口口④ |①---|
口③②口 |②-③-|
①口口口 |--④-|
⑤口口⑤ |--⑤-|
25
口口口口 |----|
口口口口 |----|
口口口口 |----|
口②①口 |①-②-|
26
②口口③ |①---|
口口口口 |--②-|
口口①口 |----|
口口口口 |--③-|
27
口①口口 |----|
口②口口 |①---|
口③口口 |②---|
口口口口 |③---|
28
①口⑤⑤ |①-②-|
口口口② |③-④-|
③口口口 |--⑤-|
⑥⑥口④ |--⑥-|
29
口口口口 |----|
口口口口 |----|
口口口口 |----|
口口口口 |----|
30
口口口② |①---|
口③口口 |--②-|
口口口口 |----|
口口口① |--③-|
31
口口口口 |----|
口口口口 |①---|
口③②① |②---|
口口口口 |③---|
32
④口口④ |①---|
口③②口 |②-③-|
①口口口 |--④-|
⑤口口⑤ |--⑤-|
33
口口口口 |----|
口口口口 |----|
口口口口 |----|
口②①口 |①-②-|
34
②口口口 |①---|
口③口口 |--②-|
口口①口 |----|
口口口口 |③---|
35
口口口① |①---|
口口②口 |--②-|
口口口口 |----|
口③④口 |③-④-|
36
口口④口 |①---|
口③②口 |----|
口①口口 |--②-|
口口口口 |③-④-|
37
口①口口 |①---|
口口口口 |----|
口口口口 |----|
口口口口 |----|
38
口口口口 |----|
口②口口 |①---|
口口口④ |②---|
①口③口 |③-④-|
39
③③④④ |--①-|
①口口② |--②-|
口口口口 |③---|
口口口口 |④---|
40
口口口口 |----|
口②口口 |①---|
口口口④ |②---|
①口③口 |③-④-|
41
③③④④ |--①-|
①口口② |--②-|
口口口口 |③---|
口口口口 |④---|
42
口口口口 |----|
口②口口 |①---|
口口口④ |②---|
①口③口 |③-④-|
43
口③②口 |--①-|
①⑤④口 |--②-|
口口⑥口 |③-④-|
口口口口 |⑤-⑥-|
44
③口口② |①---|
口⑤④口 |②---|
口①口口 |③---|
口口口口 |④-⑤-|
45
口口口口 |----|
口口口口 |----|
口口口口 |----|
口口口口 |----|
46
口口口口 |----|
口口口口 |①---|
口④③口 |②---|
口②口① |③-④-|
47
④④口口 |--①-|
②口①口 |--②-|
口口口口 |③---|
口口③③ |④---|
48
口口口口 |----|
口口口口 |①---|
口③④口 |②---|
①口②口 |③-④-|
49
口口④④ |--①-|
口①口② |--②-|
口口口口 |③---|
③③口口 |④---|
50
口口口口 |----|
口口口口 |①---|
口④③口 |②---|
口②口① |③-④-|
51
口口口口 |--①-|
②口①口 |--②-|
口⑥⑤口 |③-④-|
口④③口 |⑤-⑥-|
52
口②⑤③ |①---|
口④①口 |②---|
口口口口 |③---|
口口口口 |④-⑤-|
53
⑤口口⑥ |①-②-|
⑦口口⑧ |③-④-|
口③④口 |⑤-⑥-|
①口口② |⑦-⑧-|
54
口⑦⑧口 |①-②-|
口③④口 |③-④-|
⑤口口⑥ |⑤-⑥-|
口①②口 |⑦-⑧-|
55
口口口口 |①-②-|
口③④口 |③-④-|
⑦口口⑧ |⑤-⑥-|
①⑤⑥② |⑦-⑧-|
56
①口口② |①-②-|
⑤口口⑥ |③-④-|
口③④口 |⑤-⑥-|
口⑦⑧口 |⑦-⑧-|
57
口口口口 |①---|
口①口口 |----|
①口口口 |----|
口口口口 |----|
58
口口口口 |①---|
口口①口 |----|
口口口① |----|
口口口口 |----|
59
②口口① |①-②-|
口⑧⑦口 |③-④-|
口④③口 |⑤-⑥-|
⑥口口⑤ |⑦-⑧-|
60
⑧④③⑦ |①-②-|
口口口口 |③-④-|
②⑥⑤① |⑤-⑥-|
口口口口 |⑦-⑧-|
61
口口口口 |①---|
口③①口 |②---|
口口口⑤ |③---|
②口④口 |④-⑤-|
62
③③④④ |--①-|
①口口② |--②-|
口口口口 |③---|
口口口口 |④---|
63
口口口口 |----|
口②口口 |①---|
口口口④ |②---|
①口③口 |③-④-|
64
口③②口 |--①-|
①⑤④口 |--②-|
口口⑥口 |③-④-|
口口口口 |⑤-⑥-|
65
③口口② |①---|
口⑤④口 |②---|
口①口口 |③---|
口口口口 |④-⑤-|
66
口口口口 |----|
口口口口 |----|
口口口口 |----|
口口①口 |①---|
67
口口口口 |①---|
③口口② |--②-|
口口口口 |----|
口①口口 |--③-|
68
口口口③ |--①-|
口口口④ |②---|
口②①口 |③---|
口口口口 |④---|
69
口⑤口口 |①---|
口口④口 |②-③-|
口③口① |--④-|
口口口② |--⑤-|
70
口口口口 |----|
口口口口 |----|
口口口口 |----|
口口①口 |①---|
71
口口口口 |①---|
③口口② |--②-|
口口口口 |----|
口①口口 |--③-|
72
口口口③ |--①-|
口口口④ |②---|
口②①口 |③---|
口口口口 |④---|
73
口⑤⑥口 |①-②-|
⑤口口⑥ |③-④-|
口③④口 |--⑤-|
口①②口 |--⑥-|
74
口口口口 |----|
口口口口 |----|
口口口口 |----|
口①②口 |①-②-|
75
②②④④ |①---|
①①③③ |②---|
口口口口 |③---|
口口口口 |④---|
76
口口口口 |①---|
口口口口 |②---|
②②④④ |③---|
①①③③ |④---|
77
②⑤⑤② |①---|
①④③① |②---|
口口口口 |③-④-|
口口口口 |--⑤-|
78
②口口① |----|
②口口① |----|
口口口口 |①---|
口口口口 |②---|
79
口口⑤④ |①---|
口②③口 |②-③-|
口口①口 |--④-|
口口口口 |--⑤-|
80
口①口口 |--①-|
口⑥口口 |--②-|
口④⑤口 |③-④-|
口②③口 |⑤-⑥-|
81
①口口① |①---|
①口口① |--②-|
口口口口
②②②②

③③③③
口口口口
口口口口 |----|
口口口口 |--③-|
82
口口口口 |--①-|
口口①口 |②---|
口口②口 |③---|
口③口④ |④---|
83
口口口口 |①---|
口③口② |②-③-|
口口口①
口口口口

口④口口
④口口口
口口口⑤ |--④-|
口口⑤口 |--⑤-|
84
口口口口 |----|
口③口口 |①---|
口①②口 |②---|
口口口口 |③---|
85
①口口① |①---|
①口口① |--②-|
口口口口
②②②②

③③③③
口口口口
口口口口 |----|
口口口口 |--③-|
86
口口口口 |--①-|
口口①口 |②---|
口口②口 |③---|
口③口④ |④---|
87
⑤⑤④④ |①-②-|
③口⑥⑥ |③-④-|
①口口② |--⑤-|
口口口口 |--⑥-|
88
口口口口 |----|
口口口口 |----|
口口口口 |----|
口①②口 |①-②-|
89
②②④④ |①---|
①①③③ |②---|
口口口口 |③---|
口口口口 |④---|
90
口口口口 |①---|
口口口口 |②---|
②②④④ |③---|
①①③③ |④---|
91
②⑤⑤② |①---|
①④③① |②---|
口口口口 |③-④-|
口口口口 |--⑤-|
92
②口口① |----|
②口口① |----|
口口口口 |①---|
口口口口 |②---|
93
口口⑤④ |①---|
口②③口 |②-③-|
口口①口 |--④-|
口口口口 |--⑤-|
94
口①口口 |--①-|
口⑥口口 |--②-|
口④⑤口 |③-④-|
口②③口 |⑤-⑥-|
95
②口口① |①-②-|
④口口③ |③-④-|
口⑤⑤口 |--⑤-|
口⑥⑥口 |--⑥-|
96
口口口口 |①---|
口①①口 |--②-|
②口口② |----|
③口口③ |③---|
97
②口口① |①-②-|
④口口③ |③-④-|
口⑤⑤口 |--⑤-|
口⑥⑥口 |--⑥-|
98
口口口口 |①---|
口①①口 |--②-|
②口口② |----|
③口口③ |③---|
99
②口口① |①-②-|
④口口③ |③-④-|
口⑤⑤口 |--⑤-|
口⑥⑥口 |--⑥-|
100
口口口口 |①---|
口①①口 |--②-|
②口口② |----|
③口口③ |③---|
101
②口口① |①-②-|
④口口③ |③-④-|
口⑤⑤口 |--⑤-|
口⑥⑥口 |--⑥-|
102
口口口口 |①---|
口①①口 |--②-|
②口口② |----|
③口口③ |③---|
103
口口口口 |----|
口③②口 |①---|
口①①口 |②-③-|
口口口口 |----|

不確定度: 1

最終更新:2015年11月03日 00:20