漆黒のスペシャルプリンセスサンデー
日向美ビタースイーツ♪

EXTREME

Level: 9
BPM: 200
Notes: 817

1
口口口口 |----|
口口口口 |----|
口口口口 |----|
口口口口 |----|
2
口②口③ |①-②-|
⑥口⑦口 |③-④-|
口④口① |⑤-⑥-|
⑧口⑤口 |⑦-⑧-|
3
②口③口 |①-②-|
口⑥口⑦ |③-④-|
④口①口 |⑤-⑥-|
口⑧口⑤ |⑦-⑧-|
4
口②口③ |①-②-|
⑥口⑦口 |③-④-|
口④口① |⑤-⑥-|
⑧口⑤口 |⑦-⑧-|
5
②口③口 |①-②-|
口⑥口⑦ |③-④-|
④口①口 |⑤-⑥-|
口⑧口⑤ |⑦-⑧-|
6
口②口③ |①-②-|
⑥口⑦口 |③-④-|
口④口① |⑤-⑥-|
⑧口⑤口 |⑦-⑧-|
7
②口③口 |①-②-|
口⑥口⑦ |③-④-|
④口①口 |⑤-⑥-|
口⑧口⑤ |⑦-⑧-|
8
口②口③ |①-②-|
⑥口⑦口 |③-④-|
口④口① |⑤-⑥-|
⑧口⑤口 |⑦-⑧-|
9
①②③口 |①-②-|
口口口口 |③---|
口④④口 |--④-|
口⑤⑤口 |--⑤-|
10
口口口口 |----|
口口口口 |----|
口口口口 |----|
口口口口 |----|
11
口③②① |①-②-|
口口口口 |③---|
口④④口 |--④-|
口⑤⑤口 |--⑤-|
12
口口口口 |----|
口口口口 |----|
口口口口 |----|
口口口口 |----|
13
①②③口 |①-②-|
口口口口 |③---|
口④④口 |--④-|
口⑤⑤口 |--⑤-|
14
口口口口 |----|
口口口口 |----|
口口口口 |----|
口口口口 |----|
15
口③②① |①-②-|
口口口口 |③---|
口④④口 |--④-|
口⑤⑤口 |--⑤-|
16
④⑤⑥⑦ |①-②-|
⑧⑨⑩口 |③-④⑤|
口口口③ |⑥⑦⑧⑨|
②口口① |⑩---|
17
④⑤⑥口 |①-②-|
口口口⑥ |③-④-|
⑦②③口 |⑤-⑥-|
口⑦口① |--⑦-|
18
口④⑤口 |--①-|
④口①⑤ |②-③-|
口②口口 |④---|
口口③口 |⑤---|
19
①⑦口⑥ |①-②-|
⑦②⑥口 |③-④-|
口④口③ |⑤-⑥-|
口口⑤口 |--⑦-|
20
⑩⑪⑫⑬ |--①-|
口口口① |②③④⑤|
②③④⑤ |⑥⑦⑧⑨|
⑥⑦⑧⑨ |⑩⑪⑫⑬|
21
口口口口 |--①-|
口①②口 |--②-|
①口口② |----|
口口口口 |----|
22
口口口② |①---|
口口③口 |--②-|
口口口口 |----|
口①①口 |--③-|
23
口口口口 |----|
口口口口 |①---|
①③②口 |②---|
口口口口 |③---|
24
口口口口 |①---|
口②③口 |②-③-|
口口口口
口口①口

口口口④
口口口口
口口口口 |--④-|
口口⑤⑤ |--⑤-|
25
③口口④ |--①-|
口②⑤口 |②-③-|
口⑥①口 |④-⑤-|
⑦口口口 |⑥-⑦-|
26
③口口② |①---|
③口口② |--②-|
口口口口 |----|
口①①口 |--③-|
27
口口口口 |----|
口口口口 |①---|
口①②口 |②---|
口③口口 |③---|
28
④②③① |①-②-|
口口⑤口 |③-④-|
口口口口 |--⑤-|
口⑥⑥口 |--⑥-|
29
口⑦⑤口 |--①-|
⑥③口④ |②-③-|
口口②口 |④-⑤-|
口口口① |⑥-⑦-|
30
③口口口 |①---|
口③口② |--②-|
口口②口 |----|
口①①口 |--③-|
31
口口口口 |----|
②口口口 |①---|
口口①口 |②---|
口③口口 |③---|
32
④③②① |①-②-|
口口口口 |③-④-|
口口口①
口口口口

口口口⑥
口口口口
口口口口 |--⑤-|
口口⑤⑤ |--⑥-|
33
⑥口③口 |①-②-|
口④①口 |③-④-|
⑤②口口 |⑤-⑥-|
⑧口口⑦ |⑦-⑧-|
34
口口口② |①---|
③口②口 |--②-|
口③口② |----|
③①①口 |③---|
35
②①①口 |①---|
口②口① |--②-|
口口②口 |----|
口④③口 |③-④-|
36
口口口口 |①---|
④口口① |----|
口口口① |--②-|
②口口③ |③-④-|
37
⑦⑪①⑥ |①---|
口③⑫① |②③④⑤|
⑤口⑧④ |⑥⑦⑧⑨|
⑬⑨②⑩ |⑩⑪⑫⑬|
38
口口①口 |①---|
②③口① |②---|
口口口④ |③---|
口口⑤口 |④-⑤-|
39
①③④口 |--①-|
口口口口 |--②-|
③口口④ |③---|
口②口口 |④---|
40
⑤④口口 |①---|
口②③口 |②---|
口①①口 |③---|
口口口口 |④-⑤-|
41
口口口① |--①-|
④④口口 |--②-|
口④③③ |③---|
口口③② |④---|
42
②①①口 |①---|
口⑤②② |②---|
口口③③ |③---|
③④④④ |④-⑤-|
43
口④①① |①-②-|
⑤口③③ |③-④-|
②⑥⑤⑤ |⑤-⑥-|
⑦⑧⑦⑦ |⑦-⑧-|
44
②②①① |①---|
④④③③ |②---|
口口口口 |③---|
口⑤⑤口 |④-⑤-|
45
口口口口 |----|
口口口口 |----|
口口口口 |----|
口口口口 |----|
46
口①①② |①---|
口①口① |②---|
①①口口
①①口口

④口口口
口⑤口口
口口③口 |③---|
口口口口 |④-⑤-|
47
④口②③ |--①-|
口口口① |--②-|
口口口口 |③---|
③①口④ |④---|
48
口口④⑤ |①---|
②口口口 |②---|
口③口口 |③---|
口①①口 |④-⑤-|
49
③口口④ |--①-|
口①①口 |--②-|
口口口口 |③---|
④②口③ |④---|
50
口①①口 |①---|
②②⑤② |②---|
③③④口 |③---|
④④口③ |④-⑤-|
51
①①⑤② |①-②-|
③③口⑥ |③-④-|
⑤⑤⑦口 |⑤-⑥-|
⑦⑦④⑧ |⑦-⑧-|
52
①口口② |①---|
口口口口 |②---|
④口口③ |③---|
口口⑤口 |④-⑤-|
53
⑥⑩⑨⑤ |①②③④|
⑭②①⑬ |⑤⑥⑦⑧|
⑫⑧⑦⑪ |⑨⑩⑪⑫|
④⑯⑮③ |⑬⑭⑮⑯|
54
⑥⑩⑨⑤ |①②③④|
⑭②①⑬ |⑤⑥⑦⑧|
⑫⑧⑦⑪ |⑨⑩⑪⑫|
④⑯⑮③ |⑬⑭⑮⑯|
55
⑥⑩⑨⑤ |①②③④|
⑭②①⑬ |⑤⑥⑦⑧|
⑫⑧⑦⑪ |⑨⑩⑪⑫|
④⑯⑮③ |⑬⑭⑮⑯|
56
⑥口⑨⑤ |①②③④|
口②①口 |⑤⑥⑦⑧|
口⑧⑦口 |⑨---|
④口口③ |----|
57
口②口口 |①---|
①③口① |----|
口口口口 |----|
口①①口 |--②③|
58
口口口② |①---|
口口口口 |②-③-|
口①口口 |----|
口⑤④③ |--④⑤|
59
⑭⑥⑤⑬ |①②③④|
②⑩⑨① |⑤⑥⑦⑧|
⑧④③⑦ |⑨⑩⑪⑫|
⑫⑯⑮⑪ |⑬⑭⑮⑯|
60
⑭⑥⑤⑬ |①②③④|
②⑩⑨① |⑤⑥⑦⑧|
⑧④③⑦ |⑨⑩⑪⑫|
⑫⑯⑮⑪ |⑬⑭⑮⑯|
61
口⑤④口 |①---|
口口口① |②---|
口③②口 |③---|
口口口口 |④-⑤-|
62
④口口③ |--①-|
②③④① |--②-|
口④③① |③---|
③口口④ |④---|
63
口口口口 |①---|
②口⑤③ |②---|
口口④口 |③---|
口①①口 |④-⑤-|
64
口口口口 |--①-|
口①口⑥ |--②-|
⑤口口④ |③-④-|
③口口② |⑤-⑥-|
65
①①②② |①---|
⑤口口④ |②---|
口⑤④口 |③---|
③⑤④③ |④-⑤-|
66
口口口口 |----|
口口口口 |----|
口口①口 |----|
口口口口 |①---|
67
口口口口 |①---|
口③①口 |--②-|
口口口口 |----|
口②口口 |--③-|
68
口口④③ |--①-|
口口口口 |②---|
口②①口 |③---|
口口口口 |④---|
69
②①口口 |①---|
口③④口 |②-③-|
口口口口 |--④-|
口口⑤口 |--⑤-|
70
口口口口 |----|
口口口口 |----|
口①口口 |----|
口口口口 |①---|
71
口口口口 |①---|
口①③口 |--②-|
口口口口 |----|
口口②口 |--③-|
72
③④口口 |--①-|
口口口口 |②---|
口①②口 |③---|
口口口口 |④---|
73
⑥口口⑤ |①-②-|
口②①口 |③-④-|
口④③口 |--⑤-|
口口口口 |--⑥-|
74
口口口口 |----|
口口口口 |----|
口②①口 |----|
口口口口 |①-②-|
75
口⑦口口 |①-②-|
④口口① |③-④-|
⑧⑦⑥⑤ |⑤-⑥-|
④③②① |⑦-⑧-|
76
⑧⑦⑥⑤ |①-②-|
④③②① |③-④-|
口⑦口口 |⑤-⑥-|
④口口① |⑦-⑧-|
77
口⑥⑤⑤ |①---|
④③③③ |②---|
②口②② |③-④-|
口口①① |⑤-⑥-|
78
口口⑦口 |①---|
口⑥⑤⑦ |②---|
口④③口 |③④⑤⑥|
②②①① |⑦---|
79
①④④① |①---|
口口口口 |②-③-|
口口口口 |--④-|
⑤②③⑤ |--⑤-|
80
口口口口 |----|
②口口① |----|
④②①③ |①-②-|
口④③口 |③-④-|
81
①①①① |①---|
口③②口 |②-③-|
口口口口
口口口口

口⑦口口
④口口口
⑦⑥⑤⑦ |④-⑤-|
口口⑦口 |⑥-⑦-|
82
③口②⑥ |--①-|
口④⑤② |②-③-|
口口口口 |④-⑤-|
⑦①口口 |⑥-⑦-|
83
口①③口 |①---|
①口口③ |②-③-|
口②口①
口口①口

⑦口口⑦
口④口口
⑦口⑤⑦ |④-⑤-|
口⑥口口 |⑥-⑦-|
84
⑥④②口 |--①-|
口口口口 |②-③-|
口口口口 |④-⑤-|
⑦⑤③① |⑥-⑦-|
85
口④③⑦ |①---|
①⑦①③ |②-③-|
②①⑦① |④-⑤-|
⑦⑥口⑤ |⑥-⑦-|
86
⑥口口⑦ |--①-|
⑤口①④ |②-③-|
②②口③ |④-⑤-|
口口口口 |⑥-⑦-|
87
口⑤⑤口 |①-②-|
口⑥⑥口 |③-④-|
③③④④ |--⑤-|
①①②② |--⑥-|
88
①⑤口② |--①-|
口口口口 |②-③-|
③⑦⑥④ |④-⑤-|
口口口口 |⑥-⑦-|
89
口⑦口口 |①-②-|
④口口① |③-④-|
⑧⑦⑥⑤ |⑤-⑥-|
④③②① |⑦-⑧-|
90
⑧⑦⑥⑤ |①-②-|
④③②① |③-④-|
口⑦口口 |⑤-⑥-|
④口口① |⑦-⑧-|
91
口⑥⑤⑤ |①---|
④③③③ |②---|
②口②② |③-④-|
口口①① |⑤-⑥-|
92
口口⑦口 |①---|
口⑥⑤⑦ |②---|
口④③口 |③④⑤⑥|
②②①① |⑦---|
93
①④④① |①---|
口口口口 |②-③-|
口口口口 |--④-|
⑤②③⑤ |--⑤-|
94
口③③口 |--①-|
②⑤⑤① |--②-|
口④④口 |③-④-|
口⑥⑥口 |⑤-⑥-|
95
④口口⑤ |①-②-|
口口⑥③ |③-④-|
②⑥口口 |--⑤-|
⑤口口① |--⑥-|
96
③②①口 |①---|
①③口② |--②-|
②口③① |----|
口①②③ |③---|
97
口⑤口④ |①-②-|
⑤口③口 |③-④-|
口②口⑥ |--⑤-|
①口⑥口 |--⑥-|
98
①口口② |①---|
口口③口 |--②-|
口②口口 |----|
③口口① |③---|
99
④口口⑤ |①-②-|
口口⑥③ |③-④-|
②⑥口口 |--⑤-|
⑤口口① |--⑥-|
100
③②①口 |①---|
①③口② |--②-|
②口③① |----|
口①②③ |③---|
101
⑦③⑥⑧ |①-②-|
⑤口④口 |③-④-|
口口口② |⑤-⑥-|
①口口口 |⑦-⑧-|
102
⑬口口口 |①②③④|
⑨⑩⑪⑫ |⑤⑥⑦⑧|
⑤⑥⑦⑧ |⑨⑩⑪⑫|
①②③④ |⑬---|
103
口口口口 |----|
口③②口 |①---|
口①①口 |②-③-|
口口口口 |----|

不確定度: 1

最終更新:2015年11月03日 00:19