Slluuddggee
Hommarju

EXTREME

Level: 10
BPM: 83-174
Notes: 924

BPM: 83
1
口口口口 |①---|
口口口口
口口口口
①口口口

BPM: 89
口口口②
口口口口 |②---|
口口口口
口口口口

BPM: 98
③口口口
口口口口
口口口口 |③---|
口口口口

BPM: 105
口口口口
口口口口
口口口口
口口口④ |④---|

BPM: 114
2
口口口口 |①---|
口口口口
口口口口
①口口口

BPM: 121
口口口②
口口口口 |②---|
口口口口
口口口口

BPM: 125
③口口口
口口口口
口口口口 |③---|
口口口口

BPM: 131
口口口口
口口口口
口口口口
口口口④ |④---|

BPM: 136
3
口口口口 |①---|
口口口口
口口口口
①口口口

BPM: 138
口口口②
口口口口 |②---|
口口口口
口口口口

BPM: 141
③口口口
口口口口
口口口口 |③---|
口口口口

BPM: 143
口口口口
口口口口
口口口口
口口口④ |④---|

BPM: 147
4
口口口口 |①---|
口口口口
口口口口
①口口口

BPM: 150
③口口②
口口口口 |②---|
口口口口 |③---|
口口口④ |④---|

BPM: 155
5
口口口口 |①---|
口口口口
口口口口
①口①口

BPM: 163
④口口②
口⑦③口 |②-③-|
口⑤口口 |④-⑤-|
口口口⑥ |⑥-⑦-|

BPM: 167
6
⑤口口③ |①-②-|
口⑧④口 |③-④-|
口⑥②口 |⑤-⑥-|
①口口⑦ |⑦-⑧-|

BPM: 170
7
④口口② |①---|
口⑦③口 |②-③-|
口⑤口口 |④-⑤-|
①口①⑥ |⑥-⑦-|

BPM: 174
8
⑤口口③ |①-②-|
口⑧④口 |③-④-|
口⑥②口 |⑤-⑥-|
①口口⑦ |⑦-⑧-|
9
口口口④ |①-②-|
③⑥⑤④ |③---|
②口③口 |④-⑤-|
①口①⑥ |⑥---|
10
口③口口 |①-②-|
口口口口 |③---|
口①②③
口①口口

④口口④
口⑥⑤口
⑧口⑧口 |④-⑤⑥|
⑦口⑦口 |⑦-⑧-|
11
③口④③ |①-②-|
口⑥⑤④ |③---|
口②口口 |④-⑤-|
口①⑥① |⑥---|
12
口③口口 |①-②-|
口口口口 |③---|
①②③口
口①口口

④口口④
口⑤⑥口
口⑧口⑧ |④-⑤⑥|
口⑦口⑦ |⑦-⑧-|
13
④⑦③⑧ |①--②|
⑥口口② |③-④-|
①口口口 |⑤--⑥|
⑤口①口 |⑦-⑧-|
14
④⑦③口 |①--②|
⑥口口② |③-④-|
口口口口 |⑤--⑥|
⑤⑧口① |⑦-⑧-|
15
⑧口⑥⑦ |①②③④|
口口④⑤ |⑤⑥⑦⑧|
口口②③
口口口①

口口口口
⑩⑨口口
⑫⑪⑯口 |⑨⑩⑪⑫|
⑭⑬口⑮ |⑬⑭⑮⑯|
16
口口口口 |①---|
口口口口 |----|
口口口① |----|
口口口口 |----|
17
②③口口 |①---|
口口口口 |②-③-|
②③口口
①①①①

口口⑥⑥
口⑤口口
口口④口 |④-⑤-|
⑦⑦口口 |⑥-⑦-|
18
口口口口 |①-②-|
④口④口 |③-④-|
口③口③
口口②①

⑥口⑤口
口⑥口⑤
⑧口⑦口 |⑤-⑥-|
口⑧口⑦ |⑦-⑧-|
19
口①口① |①---|
②口②口 |②-③-|
口①口①
③口③口

口口⑥⑦
口口口口
⑥⑦④口 |④-⑤-|
口口口⑤ |⑥-⑦-|
20
①①口口 |①-②③|
口④③② |④-⑤-|
口口口⑤
口口⑤口

口⑦⑦口
口口口口
口⑦⑦口 |⑥---|
⑥口口⑥ |⑦---|
21
①口口① |①---|
口①①口 |②-③-|
②口口③
口②③口

口口口⑥
④口⑥⑦
口口⑦口 |④-⑤-|
⑤口口口 |⑥-⑦-|
22
①⑥①⑤ |①-②-|
⑧④⑦口 |③-④-|
③⑥口⑤ |⑤-⑥-|
⑧②⑦② |⑦-⑧-|
23
③口②口 |①---|
口③口② |②-③-|
①口①口
口①口①

口④口口
口口口口
口⑤口口 |④-⑤-|
⑥⑦⑦⑥ |⑥-⑦-|
24
口口④① |①-②③|
口③⑤⑤ |④-⑤-|
②口口①
口口口口

口⑧口口
口口口口
口⑦⑥⑧ |⑥-⑦-|
⑦口口⑥ |⑧---|
25
口口①② |①---|
口口口③ |②③④⑤|
①口④口
口口⑤口

口⑦口口
口⑧⑥口
⑨口口⑥ |⑥---|
⑩口口口 |⑦⑧⑨⑩|
26
口⑦口② |①---|
①⑧⑥③ |②③④⑤|
⑨①④⑥ |⑥---|
⑩口⑤口 |⑦⑧⑨⑩|
27
口口口口 |①---|
①④②③ |②---|
④①③② |③---|
口口口口 |④---|
28
⑤④③② |①---|
①口①口 |②③④⑤|
口①口①
口口口口

口口口口
口口⑩⑩
口口⑩⑩ |⑥⑦⑧⑨|
⑨⑧⑦⑥ |⑩---|
29
④④②③ |①--②|
①①⑤⑤ |③-④-|
①①口口 |⑤--⑥|
⑦⑥⑧⑧ |⑦-⑧-|
30
④④②③ |①--②|
口口⑤⑤ |③-④-|
①①口口 |⑤--⑥|
⑦⑥⑧⑧ |⑦-⑧-|
31
⑬⑮⑫⑩ |①②③④|
①③⑧⑥ |⑤⑥⑦⑧|
⑤⑦④② |⑨⑩⑪⑫|
⑨⑪⑯⑭ |⑬⑭⑮⑯|
32
口口口口 |①---|
①①口口 |----|
口口口口 |----|
口口口口 |----|
33
②口口③ |①---|
口口口口 |②--③|
③口③口
①口口①

口口口口
④口⑤口
口口口口 |--④-|
⑤口口⑤ |-⑤--|
34
①⑤④⑤ |①--②|
③口口② |--③-|
②口口④ |-④--|
④⑥②⑥ |⑤-⑥-|
35
②口③口 |①---|
④口⑤③ |②--③|
③①①口 |--④-|
⑤口口⑤ |-⑤--|
36
①⑤②⑤ |①--②|
③②④口 |--③-|
②口口口 |-④--|
④⑥④⑥ |⑤-⑥-|
37
②⑤③⑤ |①---|
④口口② |②--③|
③①①③ |--④-|
⑤口④口 |-⑤--|
38
①⑤②⑤ |①--②|
③②④④ |--③-|
②口①③ |-④--|
④⑥口⑥ |⑤-⑥-|
39
②口口口 |①---|
口③口口 |②--③|
③①①②
口口③口

口口口⑤
④口口④
口口⑤口 |--④-|
⑤口口口 |-⑤--|
40
①口口口 |①--②|
③口③口 |--③-|
②②口②
口口口①

口⑤④⑤
口④口口
口口口口 |-④--|
④⑥口⑥ |⑤-⑥-|

BPM: 83
41
口口口口 |①---|
口口口口
①①①①
口口口口

BPM: 89
②口口口
口口口口 |②-③-|
口口口③
口口口口

BPM: 98
口口口口
口口口口
口口口口 |④-⑤-|
口④⑤口

BPM: 105
口口口口
口⑥口口
口口⑦口
口口口口 |⑥-⑦-|

BPM: 114
42
口口口② |①-②-|
口口口口
口口口口
口口口①

BPM: 121
④口口口
口口口口 |③-④-|
③口口口
口口口口

BPM: 125
口口口口
口口口口
口口口口 |⑤-⑥-|
口⑥⑤口

BPM: 131
口口口口
口⑧⑧口
口口口口
⑦口口⑦ |⑦-⑧-|

BPM: 136
43
口①①口 |①---|
①口口①
口口口口
口口口口

BPM: 138
②口口口
口口口口 |②-③-|
口口口③
口口口口

BPM: 141
口口口口
口口口口
口口口口 |④-⑤-|
口④⑤口

BPM: 143
口口口口
口⑥口口
口口⑦口
口口口口 |⑥-⑦-|

BPM: 147
44
口口口② |①-②-|
口口口口
口口口口
口口口①

BPM: 150
④口口口
口⑧⑧口 |③-④-|
③口口口 |⑤-⑥-|
⑦⑥⑤⑦ |⑦-⑧-|

BPM: 155
45
口①①口 |①---|
①口口①
口口口口
口口口口

BPM: 163
②口口口
口⑥口口 |②-③-|
口口⑦③ |④-⑤-|
口④⑤口 |⑥-⑦-|

BPM: 167
46
④口口② |①-②-|
口口口口 |③-④-|
③口口口
口口口①

口口口口
口⑧⑧口
口口口口 |⑤-⑥-|
⑦⑥⑤⑦ |⑦-⑧-|

BPM: 170
47
②①①口 |①---|
①⑥口① |②-③-|
口口⑦③ |④-⑤-|
口④⑤口 |⑥-⑦-|

BPM: 174
48
④口口② |①-②-|
口口口口 |③-④-|
③口口口
口口口①

口口口口
口⑧⑧口
口口口口 |⑤-⑥-|
⑦⑥⑤⑦ |⑦-⑧-|
49
⑦③⑨④ |①②③④|
①口口⑧ |⑤⑥⑦⑧|
⑤⑨⑨② |⑨---|
口口⑥口 |----|
50
⑨②⑨⑦ |①②③④|
⑧口口⑤ |⑤⑥⑦⑧|
④⑨口① |⑨---|
口⑥③口 |----|
51
⑤口⑨④ |①②③④|
⑨①口⑧ |⑤⑥⑦⑧|
③口⑥⑨ |⑨---|
口⑦②口 |----|
52
②口口口 |①②③④|
⑧口①⑦ |⑤⑥⑦⑧|
⑥口③口
口④口⑤

⑭⑮口⑬
口⑩口口
口口口⑨ |⑨⑩⑪⑫|
⑫口⑪口 |⑬-⑭⑮|
53
口口①口 |①-②③|
口口①② |④-⑤-|
口口③口
口④⑤⑤

⑦口口口
⑧口⑩口
⑨⑥口⑩ |⑥-⑦⑧|
⑥口口口 |⑨-⑩-|
54
⑤②③④ |①-②③|
口⑤口① |④-⑤-|
口口①口
口口口口

口⑩口口
⑥口口口
⑥⑩口口 |⑥-⑦⑧|
⑨⑧⑦口 |⑨-⑩-|
55
⑧口⑥⑦ |①②③④|
口口④⑤ |⑤⑥⑦⑧|
口口②③
口口口①

口口口口
⑩⑨口口
⑫⑪⑯口 |⑨⑩⑪⑫|
⑭⑬口⑮ |⑬⑭⑮⑯|
56
口②③口 |①-②-|
口④⑤口 |③-④-|
口⑥⑦① |⑤-⑥-|
口⑧口口 |⑦-⑧-|
57
①②①② |①---|
①口口① |②-③-|
口口口口
③口③口

⑦口⑥口
口⑦口⑥
口口④口 |④-⑤-|
口口口⑤ |⑥-⑦-|
58
口①口口 |①-②-|
口口口口 |③-④-|
③④口②
④③口口

⑧⑧口口
⑤⑥口⑦
口口⑦口 |⑤-⑥-|
口口⑥⑤ |⑦-⑧-|
59
口口口口 |①---|
②③①口 |②-③-|
①③口①
②①口口

口口口④
口口⑥⑥
口口⑦⑦ |④-⑤-|
口口⑤口 |⑥-⑦-|
60
口口口口 |①-②③|
①②口口 |④-⑤-|
口③口口
①④⑤⑤

⑥口口⑦
⑨口口⑥
⑦口⑧⑧ |⑥-⑦-|
⑨口口口 |⑧-⑨-|
61
口口①口 |①---|
口②①③ |②-③-|
口①口口
口①③②

⑤⑥⑥④
口口口口
⑦口口⑦ |④-⑤-|
口口口口 |⑥-⑦-|
62
口口口③ |①-②-|
口口口口 |③-④-|
口②①口
④口②①

⑤⑦⑤口
⑦⑥口⑥
口口口口 |⑤-⑥-|
口口口⑧ |⑦-⑧-|
63
⑥⑤口① |①---|
⑤⑥①口 |②-③-|
④①①② |④-⑤-|
⑦③②口 |⑥-⑦-|
64
口口⑥④ |①-②③|
⑧⑧③① |④-⑤-|
口②①⑦ |⑥-⑦-|
⑨口⑤⑤ |⑧-⑨-|
65
①③②① |①---|
口口口② |②--③|
③①①③
口②口口

⑤口口口
④⑤④口
口口口口 |--④-|
口口⑤④ |-⑤--|
66
口②①① |①--②|
口口口③ |--③-|
②③②③
口①口口

口口口口
⑤④⑤口
口口口口 |-④--|
④⑥④⑥ |⑤-⑥-|
67
②口口② |①---|
口⑤口③ |②③④⑤|
①②①④
⑤口口口

口⑨⑥口
⑥口⑦口
⑨口⑧口 |--⑥⑦|
口⑥口口 |⑧⑨--|
68
①口⑤① |①②③④|
⑤④⑥② |--⑤⑥|
口①口③
④⑤口口

⑨⑧口口
口口口口
⑧⑨⑦口 |⑦⑧--|
口口⑩⑩ |⑨-⑩-|
69
口⑤④④ |①-②③|
口②⑤③ |④-⑤-|
口口口①
①口口口

⑥口口口
⑥口口口
⑧⑩⑦口 |⑥-⑦⑧|
⑨⑨⑩口 |⑨-⑩-|
70
⑥⑤④④ |①-②③|
⑥②⑤③ |④-⑤-|
⑧⑩⑦① |⑥-⑦⑧|
⑨⑨⑩① |⑨-⑩-|
71
口④口⑦ |①②③④|
⑥②⑤① |⑤⑥⑦⑧|
⑧口口口
口口口③

⑫口⑨口
口⑭口⑮
口口口⑬ |⑨⑩⑪⑫|
⑯⑩⑪口 |⑬⑭⑮⑯|
72
口②⑦⑤ |①②③④|
⑧口③口 |⑤⑥⑦⑧|
④⑥口口
口口口①

⑩⑯口口
口口⑮⑬
口口口⑪ |⑨⑩⑪⑫|
⑭⑫⑨口 |⑬⑭⑮⑯|
73
口口口口 |①---|
口②口口 |②---|
口口③口 |③---|
口④口① |④---|
74
②口口口 |①---|
口口口③ |②---|
④口口口 |③---|
口口口① |④---|
75
口②口口 |①---|
口口③口 |②---|
口④口口 |③---|
口口①口 |④---|
76
②口口口 |①---|
口口口③ |②---|
④口口口 |③---|
口口口① |④---|
77
口口⑤口 |①-②③|
口②③④ |④-⑤-|
口口口⑤
口口①①

口口口⑥
⑨口口口
⑧口⑥口 |⑥-⑦⑧|
⑦口⑩⑩ |⑨-⑩-|
78
②①口口 |①-②③|
口③口⑤ |④-⑤-|
口①④⑤
口口口口

口⑩口口
⑥口口口
⑥⑩口口 |⑥-⑦⑧|
⑦⑧⑨口 |⑨-⑩-|
79
⑧口⑥⑦ |①②③④|
口口④⑤ |⑤⑥⑦⑧|
口口②③
口口口①

口口口口
⑩⑨口口
⑫⑪⑯口 |⑨⑩⑪⑫|
⑭⑬口⑮ |⑬⑭⑮⑯|
80
④③⑥⑤ |①②③④|
⑧⑦②① |⑤⑥⑦⑧|
⑫⑮⑭⑨ |⑨⑩⑪⑫|
⑯⑪⑩⑬ |⑬⑭⑮⑯|
81
口①口① |①---|
口口①口 |----|
口口口口 |----|
口口口口 |----|

不確定度: 0

最終更新:2016年04月25日 04:10