freaky freak
kamome sano

ADVANCED

Level: 8
BPM: 145
Notes: 596

1
口口口口 |①-②-|
①②③口 |③---|
口口口口
口口口口

④口口④
⑤口口⑤
⑥口口⑥ |④--⑤|
口口口口 |--⑥-|
2
口口口口 |----|
口口口口 |----|
口口口口 |----|
口口口口 |----|
3
口口口口 |①-②-|
口③②① |③---|
口口口口
口口口口

④口口④
⑤口口⑤
⑥口口⑥ |④--⑤|
口口口口 |--⑥-|
4
口口口口 |----|
口口口口 |----|
口口口口 |----|
口口口口 |----|
5
口口口口 |①-②-|
①②③口 |③---|
口口口口
口口口口

④口口④
⑤口口⑤
⑥口口⑥ |④--⑤|
口口口口 |--⑥-|
6
口④口口 |①---|
口口③口 |②---|
口②口口 |③---|
口口①口 |④---|
7
口口口口 |①-②-|
口③②① |③---|
口口口口
口口口口

④口口④
⑤口口⑤
⑥口口⑥ |④--⑤|
口口口口 |--⑥-|
8
口口④口 |①---|
口③口口 |②---|
口口②口 |③---|
口①口口 |④---|
9
②④③① |①---|
口口口口 |②---|
口口口口 |③---|
①③④② |④---|
10
②④③① |①---|
口口口口 |②---|
口口口口 |③---|
①③④② |④---|
11
②④③① |①---|
口口口口 |②---|
口口口口 |③---|
①③④② |④---|
12
②④③① |①---|
口口口口 |②---|
口口口口 |③---|
①③④② |④---|
13
口口口口 |①-②-|
⑥④③⑤ |③-④-|
⑧②①⑦ |⑤-⑥-|
口口口口 |⑦-⑧-|
14
⑥口口⑤ |①-②-|
⑧口口⑦ |③-④-|
口④③口 |⑤-⑥-|
口②①口 |⑦-⑧-|
15
⑧⑧⑦⑦ |①-②-|
⑥⑥⑤⑤ |③-④-|
④④③③ |⑤-⑥-|
②②①① |⑦-⑧-|
16
口口口口 |①-②-|
⑥口口⑧ |③-④-|
⑤②④⑦ |⑤-⑥-|
口①③口 |⑦-⑧-|
17
口②④口 |①-②-|
口①③口 |③-④-|
口口口口
口口口口

口口口⑤
口⑥口⑥
⑥口⑥口 |⑤---|
⑤口口口 |⑥---|
18
口口口③ |①-②-|
②口③口 |③---|
口②口①
口口①口

④④口口
口口口口
口口口口 |④---|
口口⑤⑤ |⑤---|
19
口口口口 |①-②-|
口⑤⑥① |③-④-|
④口②⑦ |⑤-⑥-|
口③⑧口 |⑦-⑧-|
20
①①口口 |①-②-|
②②口口 |③---|
③③口口
口口口口

⑤口口④
口口口口
口口口口 |④---|
④口口⑤ |⑤---|
21
口口口口 |①-②-|
④③②① |③-④-|
⑧⑦⑥⑤ |⑤-⑥-|
口口口口 |⑦-⑧-|
22
②口③① |①-②-|
②口③① |③---|
口④⑤口 |④---|
口⑤④口 |⑤---|
23
口⑥⑤口 |①-②-|
口⑧⑦口 |③-④-|
④口口③ |⑤-⑥-|
②口口① |⑦-⑧-|
24
口口口口 |①-②-|
③口口③ |③---|
口②②口
口①①口

口口口口
口④⑤口
口口⑦⑥ |④-⑤-|
口口口口 |⑥-⑦-|
25
口⑥⑤④ |①-②-|
①②③口 |③---|
口⑥⑤④ |④-⑤-|
①②③口 |⑥---|
26
口⑤④口 |①-②-|
口口③③ |③---|
⑤口口④ |④---|
②②①① |⑤---|
27
口口口口 |①-②-|
①⑧③口 |③-④-|
⑦②口④ |⑤-⑥-|
口⑥⑤口 |⑦-⑧-|
28
口口①① |①-②-|
口口②② |③---|
口口③③
口口口口

④口口⑤
口口口口
口口口口 |④---|
⑤口口④ |⑤---|
29
⑥口口⑧ |①-②-|
口②④口 |③-④-|
⑤口口⑦ |⑤-⑥-|
口①③口 |⑦-⑧-|
30
④①②⑤ |①-②-|
①③口② |③---|
③口口口 |④---|
口⑤④口 |⑤---|
31
口口口口 |①-②-|
口②口① |③-④-|
④⑧③口 |⑤-⑥-|
口⑥⑦⑤ |⑦-⑧-|
32
①⑤⑤① |①-②-|
②口口② |③---|
③口口③ |④---|
口④④口 |⑤---|
33
⑤口口⑤ |①②③④|
口②①口 |⑤---|
口④③口
口口口口

口⑥⑦口
⑥⑧⑧⑦
口口口口 |⑥-⑦-|
口⑧⑧口 |⑧---|
34
口口口口 |①---|
口口口口 |②---|
④③②① |③---|
口口口口 |④---|
35
口⑧①⑦ |①-②-|
口④口口 |③-④-|
⑥口口③ |⑤-⑥-|
②口⑤口 |⑦-⑧-|
36
④⑤⑥口 |①---|
②口口① |②---|
口②①③ |③-④-|
口口③口 |⑤-⑥-|
37
④④④④ |--①-|
口①①口 |-②--|
口②②口 |③---|
口③③口 |④---|
38
口口口口 |①---|
口口口口 |②---|
④③②① |③---|
口口口口 |④---|
39
口口⑧② |①-②-|
⑤①口口 |③-④-|
口⑦口⑥ |⑤-⑥-|
③口④口 |⑦-⑧-|
40
口口口口 |①---|
口口口口 |②---|
口口口口 |③---|
①②③④ |④---|
41
④④④④ |①---|
口口口口 |②---|
①②口口 |③---|
口③③口 |④---|
42
口口口口 |①-②-|
②口口口 |③-④-|
口口①口
口④口③

口⑥口⑤
⑧口口口
口口⑦口 |⑤-⑥-|
口口口口 |⑦-⑧-|
43
口口口③ |①-②-|
口口口口 |③-④-|
口②口口
④口①口

口⑤⑤口
口⑥⑥口
口⑦⑦口 |⑤--⑥|
口口口口 |--⑦-|
44
口②②① |①---|
口③③口 |②--③|
口④④⑥ |--④-|
⑤口口口 |--⑤-⑥-|
45
③口口② |①-②-③-|
①口口④ |④-⑤---|
⑤口口口 |⑥---|
口⑥⑥口 |----|
46
口③口⑧ |①-②-|
⑦口④口 |③-④-|
①口⑥口 |⑤-⑥-|
口⑤口② |⑦-⑧-|
47
口口口口 |①-②-|
口③口口 |③-④-|
①口口④
口口口②

口口口口
口⑦⑦口
口⑥⑥口 |⑤--⑥|
口⑤⑤口 |--⑦-|
48
①②②① |①---|
②⑤⑤② |②---|
口④④口 |③--④|
口③③口 |--⑤-|
49
⑤⑤⑨① |①②③④|
口口⑧② |⑤---|
口⑦口③ |⑥-⑦-⑧-|
口⑥口④ |⑨---|
50
口口口① |①---|
口②口② |②---|
②口②口
①口口口
51
①⑤口口 |①-②-|
口口④口 |③-④-|
口③⑧⑦ |⑤-⑥-|
⑥口②口 |⑦-⑧-|
52
⑤口口⑥ |①-②-|
①②④③ |③-④-|
口口口口 |⑤-⑥-|
⑦口口⑧ |⑦-⑧-|
53
口口口口 |①-②-|
②④⑧⑥ |③-④-|
①③⑦⑤ |⑤-⑥-|
口口口口 |⑦-⑧-|
54
①①④④ |①-②-|
②②⑤⑤ |③-④-|
③③⑥⑥ |⑤-⑥-|
⑧⑦⑦⑧ |⑦-⑧-|
55
⑤①②⑥ |①-②-|
⑦③④⑧ |③-④-|
口口口口 |⑤-⑥-|
口口口口 |⑦-⑧-|
56
口口口口 |①-②-|
口口口口 |③-④-|
⑤⑥⑦⑧ |⑤-⑥-|
①②③④ |⑦-⑧-|
57
⑥②④⑧ |①-②-|
①⑤⑦③ |③-④-|
口口口口 |⑤-⑥-|
口口口口 |⑦-⑧-|
58
⑦口⑥⑤ |①-②-③-|
口⑦⑦口 |④---|
口④⑥⑤ |⑤-⑥-|
②④③① |⑦---|
59
口口口口 |①---|
口口口口 |②---|
①②②口
②①①②

③③口口
⑤口⑥口
口口口④ |③-④-|
口⑤口口 |⑤-⑥-|
60
⑤⑥⑦① |①-②-|
口②⑦① |③-④-|
⑤⑧④口 |⑤-⑥-|
口口③③ |⑦-⑧-|
61
口口口口 |①-②-|
口④口口 |③-④-|
口口③③
口②①①

口口⑥⑤
口口⑧⑤
口口口口 |⑤-⑥-|
⑦⑦口口 |⑦-⑧-|
62
①①④④ |①-②-|
②②⑤⑤ |③-④-|
③③⑥⑥ |⑤-⑥-|
⑧⑦⑦⑧ |⑦-⑧-|
63
③③口② |①-②-|
①⑥口⑤ |③-④-|
口①⑦⑤ |⑤-⑥-|
⑧口④⑦ |⑦-⑧-|
64
口⑤②③ |①-②-|
⑤④口③ |③-④-|
①①⑥口 |⑤-⑥-|
⑦⑦口⑧ |⑦-⑧-|
65
口③口口 |①-②-|
口①④② |③-④-|
③①口口
口口口口

口口⑦⑦
口口口口
⑧口口⑤ |⑤-⑥-|
口⑥⑤口 |⑦-⑧-|
66
④⑤⑥口 |①-②-|
口③②① |③---|
④⑤⑥口 |④-⑤-|
口③②① |⑥---|
67
口口口口 |①---|
口①①口 |----|
口口口口 |----|
口①①口 |----|

不確定度: 1

最終更新:2015年11月03日 00:07