超越してしまった彼女と其を生み落した理由
Ayatsugu_Otowa
ADVANCED
Level: 8
BPM: 178
Notes: 595
1
口口口口 |----|
口口口口 |----|
口口口口 |----|
口口口口 |----|
2
口口口口 |----|
口口口口 |----|
口口口口 |----|
口口口口 |----|
3
口口④口 |①---|
②③口⑤ |--②-|
口口口口 |③--④|
①①①① |--⑤-|
4
口口口口 |①-②-|
口⑤⑤口 |③④--|
①⑥⑥② |⑤---|
口③④口 |⑥---|
5
①③②口 |①-②③|
①口口口 |--④-|
口口⑥口 |⑤---|
④口口⑤ |⑥---|
6
口①②口 |①--②|
①⑤⑤② |--③-|
③口口④ |-④--|
口③④口 |⑤---|
7
②口口① |①-②-|
④口口③ |③-④-|
⑥口口⑤ |⑤-⑥-|
⑧口口⑦ |⑦-⑧-|
8
口口⑤口 |①-②-|
口口口⑤ |③-④-|
口④③口 |⑤---|
口②①口 |----|
9
⑤⑥口口 |①-②-|
③口口④ |③-④-|
①口口② |⑤---|
口口口口 |⑥---|
10
口口①口 |①---|
口口②口 |--②-|
口口③口 |----|
口口口口 |③---|
11
口口口口 |①---|
②④口口 |②---|
口口口口 |③---|
①③口口 |④---|
12
口③②口 |①---|
③口口② |②---|
口口口口 |③---|
④口①④ |④---|
13
②口口③ |①---|
口④④口 |②---|
②①①③ |③---|
口口口口 |④---|
14
③①①③ |①---|
口口口口 |②---|
口口口口 |③---|
④②②④ |④---|
15
③①口口 |①---|
口口口口 |②---|
④②口口 |③---|
口口口口 |④---|
16
口口①口 |①---|
②②③③ |②---|
口口口口 |③---|
口④④口 |④---|
17
口②③口 |①---|
②口口③ |②---|
口①①口 |③---|
口④④口 |④---|
18
②口口② |①---|
④口口④ |②---|
③口口③ |③---|
①口口① |④---|
19
口口①③ |①---|
口口口口 |②---|
口口②④ |③---|
口口口口 |④---|
20
口①口口 |①---|
③口口② |②---|
口③②口 |③---|
口④④口 |④---|
21
口口口口 |①---|
口③②口 |②---|
③口口② |③---|
①④④① |④---|
22
②④③① |①---|
②④③① |②---|
口口口口 |③---|
口口口口 |④---|
23
口口口口 |①---|
口口④② |②---|
口口口口 |③---|
口口③① |④---|
24
口②③口 |①---|
②口口③ |②---|
口④④口 |③---|
口①口口 |④---|
25
③口口② |①---|
口④④口 |②---|
③口口② |③---|
①口口① |④---|
26
口②①口 |①--②|
②口口① |--③-|
④⑤⑤③ |-④--|
口④③口 |⑤---|
27
口口口③ |①---|
口②①④ |②---|
口口口⑤ |③-④-|
口口口⑥ |⑤-⑥-|
28
口口口口 |①---|
③④⑤⑥ |②---|
口①②口 |③-④-|
口口口口 |⑤-⑥-|
29
①③口④ |①--②|
⑤⑥④⑥ |--③-|
①口③② |-④--|
口②⑤口 |⑤--⑥|
30
⑤口②⑤ |--①-|
口口口口 |-②--|
②③④① |③--④|
③口④① |--⑤-|
31
口口口口 |①---|
口①②口 |②---|
口口口口 |③-④-|
③④⑤⑥ |⑤-⑥-|
32
③口口口 |①---|
④口口口 |②---|
⑤①②口 |③-④-|
⑥口口口 |⑤-⑥-|
33
③口③口 |①--②|
⑤②①① |--③-|
⑤口④⑥ |-④--|
口⑥②④ |⑤--⑥|
34
⑤②口⑤ |--①-|
口③①① |-②--|
口②③口 |③--④|
④口口④ |--⑤-|
35
口口⑥口 |①---|
口⑤①口 |②---|
口②④口 |③-④-|
口③口口 |⑤-⑥-|
36
口⑥口口 |①---|
口口⑤口 |②---|
口④口口 |③-④-|
②口③① |⑤-⑥-|
37
②口③① |①---|
口④口口 |②---|
口口⑤口 |③-④-|
口⑥口口 |⑤-⑥-|
38
口口口口 |①-②-|
⑤⑥②① |③-④-|
④③⑦口 |⑤-⑥-|
口口口口 |⑦---|
39
⑦⑤③① |①-②-|
⑧⑥④② |③-④-|
口口口口 |⑤-⑥-|
口口口口 |⑦-⑧-|
40
口口口口 |①-②-|
口口口口 |③-④-|
⑦⑤③① |⑤-⑥-|
⑧⑥④② |⑦-⑧-|
41
③①①③ |①--②|
④②②④ |--③-|
口⑤⑤口 |-④--|
口⑥⑥口 |⑤--⑥|
42
③①①③ |--①-|
口②②口 |-②--|
口④④口 |③---|
口口口口 |④---|
43
口口④口 |①---|
②③口⑤ |--②-|
口口口口 |③--④|
①①①① |--⑤-|
44
口口口口 |①-②-|
口⑤⑤口 |③④--|
①⑥⑥② |⑤---|
口③④口 |⑥---|
45
①③②口 |①-②③|
①口口口 |--④-|
口口⑥口 |⑤---|
④口口⑤ |⑥---|
46
口①②口 |①--②|
①⑤⑤② |--③-|
③口口④ |-④--|
口③④口 |⑤---|
47
②口口① |①-②-|
④口口③ |③-④-|
⑥口口⑤ |⑤-⑥-|
⑧口口⑦ |⑦-⑧-|
48
口口⑤口 |①-②-|
口口口⑤ |③-④-|
口④③口 |⑤---|
口②①口 |----|
49
⑤⑥口口 |①-②-|
③口口④ |③-④-|
①口口② |⑤---|
口口口口 |⑥---|
50
口口①口 |①---|
口口②口 |--②-|
口口③口 |----|
口口口口 |③---|
51
口口④口 |①---|
②③口⑤ |--②-|
口口口口 |③--④|
①①①① |--⑤-|
52
口口口口 |①-②-|
口⑤⑤口 |③④--|
①⑥⑥② |⑤---|
口③④口 |⑥---|
53
①③②口 |①-②③|
①口口口 |--④-|
口口⑥口 |⑤---|
④口口⑤ |⑥---|
54
口①②口 |①--②|
①⑤⑤② |--③-|
③口口④ |-④--|
口③④口 |⑤---|
55
②口口① |①-②-|
④口口③ |③-④-|
⑥口口⑤ |⑤-⑥-|
⑧口口⑦ |⑦-⑧-|
56
口口⑤口 |①-②-|
口口口⑤ |③-④-|
口④③口 |⑤---|
口②①口 |----|
57
⑤⑥口口 |①-②-|
③口口④ |③-④-|
①口口② |⑤---|
口口口口 |⑥---|
58
口口①口 |①---|
口口②口 |--②-|
口口③口 |----|
口口口口 |③---|
59
口⑦⑦口 |①-②-|
口口口口 |③-④-|
④⑤⑥口 |⑤-⑥-|
口③②① |⑦---|
60
口⑦⑦口 |①-②-|
口口口口 |③-④-|
④⑤⑥口 |⑤-⑥-|
口③②① |⑦---|
61
④⑦⑦① |①-②-|
⑤口口② |③-④-|
⑥口口③ |⑤-⑥-|
口口口口 |⑦---|
62
④⑦⑦① |①-②-|
⑤口口② |③-④-|
⑥口口③ |⑤-⑥-|
口口口口 |⑦---|
63
口⑦⑦口 |①-②-|
口口口口 |③-④-|
口④⑤⑥ |⑤-⑥-|
①②③口 |⑦---|
64
口⑦⑦口 |①-②-|
口口口口 |③-④-|
⑥⑤④口 |⑤-⑥-|
口③②① |⑦---|
65
口⑦⑦口 |①-②-|
⑥口口③ |③-④-|
⑤口口② |⑤-⑥-|
④口口① |⑦---|
66
口口口口 |①--②|
口③③口 |--③-|
口②②口 |----|
口①①口 |----|
67
口口口口 |①---|
口口口口 |----|
口口②口 |②---|
口口①口 |----|
68
口口②口 |①---|
口口①口 |----|
口口口口 |②---|
口口口口 |----|
69
口口口口 |①---|
口口口口 |----|
口②口口 |②---|
口①口口 |----|
70
口②口口 |①---|
口①口口 |----|
口口口口 |②---|
口口口口 |----|
71
⑤口口① |①-②-|
口⑥②口 |③-④-|
口③⑦口 |⑤-⑥-|
④口口⑧ |⑦-⑧-|
72
口口口⑤ |①-②-|
④口⑤③ |③-④-|
②⑤口① |⑤---|
⑤口口口 |----|
73
口⑤④口 |①-②-|
口③⑥口 |③-④-|
口⑦②口 |⑤-⑥-|
口①⑧口 |⑦-⑧-|
74
③口口③ |①-②-|
口口口口 |--③-|
②④④② |----|
①口口① |④---|
75
③③③③ |①-②-|
口口口口 |③---|
口口口口
口②①口
口口口口
口④口⑤
口口口口 |④-⑤-|
⑥口⑦口 |⑥-⑦-|
76
口⑨⑨口 |①②-③|
①⑤③⑦ |④-⑤⑥|
②⑥④⑧ |-⑦⑧-|
口口口口 |⑨---|
77
⑧口口③ |①-②-|
口口①口 |③-④-|
②⑤③⑦ |⑤⑥-⑦|
④⑥口① |--⑧-|
78
口④⑤③ |①-②-|
②口①⑥ |③-④-|
口口③⑦ |⑤-⑥-|
口口⑧① |⑦-⑧-|
79
口口⑧⑧ |①-②-|
⑦⑦③口 |③-④-|
①②⑥⑥ |⑤-⑥-|
⑤⑤口④ |⑦-⑧-|
80
③②⑥口 |①---|
④⑥②③ |②---|
⑤①口④ |③-④-|
口口①⑤ |⑤-⑥-|
81
口口口口 |①-②-|
⑧口口⑦ |③-④-|
⑥④③⑤ |⑤-⑥-|
口②①口 |⑦-⑧-|
82
口⑤①口 |①-②-|
口⑥②口 |③-④-|
口⑦③口 |⑤-⑥-|
口⑧④口 |⑦-⑧-|
83
③口口③ |①---|
②口口② |--②-|
①口口① |----|
口口口口 |③---|
不確定度: 1