Lovesick Lovetune
VALLEYSTONE feat. 紫崎 雪

ADVANCED

Level: 6
BPM: 135
Notes: 433

1
口口口口 |----|
口口口口 |----|
口口口口 |----|
口口口口 |----|
2
口口口口 |①---|
口口口口 |----|
口口口口 |----|
口①①口 |----|
3
口口口口 |----|
口口口口 |----|
口③口口 |----|
①口②① |①-②③|
4
口⑦⑤口 |①-②③|
⑦②①⑤ |--④-|
④口③⑥ |⑤--⑥|
口④⑥口 |--⑦-|
5
口口口口 |①---|
④口口⑤ |--②③|
⑥①①⑦ |④-⑤-|
口②③口 |⑥-⑦-|
6
④①⑤口 |①-②③|
口口口口 |--④-|
口⑥②口 |⑤-⑥⑦|
口⑦③⑧ |--⑧-|
7
口⑦⑥⑤ |①-②-|
③口口④ |③-④-|
①口口② |⑤-⑥-|
口口口口 |⑦---|
8
口⑦⑤口 |①-②③|
⑦②③⑤ |--④-|
④口①⑥ |⑤--⑥|
口④⑥口 |--⑦-|
9
口口口④ |①---|
口口口⑤ |--②③|
口①①⑥ |④-⑤-|
口③②⑦ |⑥-⑦-|
10
口口口口 |①---|
口口口口 |--②③|
⑤⑦⑧⑥ |④-⑤⑥|
①②③④ |--⑦⑧|
11
①⑦⑦① |①-②③|
②③⑤④ |-④⑤-|
口口口口 |⑥---|
口⑥⑥口 |⑦---|
12
①口口口 |①-②-|
②口口④ |③--④|
③⑦口⑤ |-⑤-⑥|
口口口⑥ |⑦---|
13
①⑧⑨口 |①-②-|
②口口④ |③--④|
③⑦口⑤ |-⑤-⑥|
口口口⑥ |⑦-⑧⑨|
14
①口口口 |①-②-|
②口口④ |③--④|
③⑦口⑤ |-⑤-⑥|
口口口⑥ |⑦---|
15
口口①口 |①-②-|
口②⑧口 |③-④-|
⑥口③⑤ |⑤⑥-⑦|
口④⑦口 |-⑧--|
16
①口口口 |①-②-|
②口口④ |③--④|
③⑦口⑤ |-⑤-⑥|
口口口⑥ |⑦---|
17
①⑧⑨口 |①-②-|
②口口④ |③--④|
③⑦口⑤ |-⑤-⑥|
口口口⑥ |⑦-⑧⑨|
18
①口口口 |①-②-|
②口口④ |③--④|
③⑦口⑤ |-⑤-⑥|
口口口⑥ |⑦---|
19
口⑤①① |①-②-|
②②⑤口 |③-④-|
口⑤③③ |⑤---|
④④⑤口 |----|
20
④口口② |①---|
①口口③ |--②-|
口口口口 |③---|
口口口① |--④-|
21
口口①口 |①---|
①②口口 |②---|
口口③② |③---|
③④口口 |--④-|
22
口④⑤口 |①---|
口口③口 |②---|
口②口口 |③---|
口口①口 |④-⑤-|
23
口口口口 |----|
口口口口 |----|
口口口口 |----|
口口口口 |----|
24
口口口口 |①---|
口③③④ |--②-|
②口口② |③---|
口①①口 |--④-|
25
口口口口 |①---|
①口口口 |②-③-|
口③②口
口口口口

口口口口
⑤口口口
口口口口 |④---|
口口④口 |--⑤-|
26
①②③④ |①---|
口口口⑤ |②---|
口口口口 |③---|
口口口口 |④-⑤-|
27
口口口口 |----|
口口口口 |----|
口口口口 |----|
口口口口 |----|
28
口口口④ |①---|
口②③口 |--②-|
口③②口 |③---|
①①口口 |--④-|
29
②口①口 |①---|
③⑤口口 |②-③-|
④口口口 |④---|
口口口口 |--⑤-|
30
③口口① |①---|
④口口口 |②---|
⑤口口② |③-④-|
⑥口口口 |⑤-⑥-|
31
口口口口 |----|
口口口口 |----|
口口口口 |----|
口口口口 |----|
32
④口口口 |①---|
口③②口 |--②-|
口②③口 |③---|
口口①① |--④-|
33
口①口② |①---|
口口口③ |②-③-|
口口口④ |④---|
口⑤口口 |--⑤-|
34
口口口口 |①---|
口口①口 |②---|
口口②口
口口口口

口⑥口口
口口⑤口
口④口口 |③-④-|
口口③口 |⑤-⑥-|
35
①⑤⑤① |①--②|
②④④② |--③-|
③⑤⑤③ |④---|
口口口口 |⑤---|
36
②口口① |①---|
②口口① |②---|
口口口口
①口口②

口口③口
口口口口
口④口口 |③-④⑤|
口⑤口⑥ |--⑥-|
37
③口口④ |①-②-|
⑤口⑦② |③-④-|
①口⑦⑥ |⑤-⑥-|
口口口口 |--⑦-|
38
②④④② |①---|
口①口口 |②---|
口①口口 |③---|
口③③口 |④---|
39
口口口口 |①-②③|
口口口口 |--④-|
⑤口⑥⑦ |⑤-⑥⑦|
①④②③ |----|
40
②口口① |①---|
②口口① |②---|
口口口口
①口口②

口口③口
口口口口
口④口口 |③-④⑤|
口⑤口⑥ |--⑥-|
41
③口口④ |①-②-|
⑤口⑦② |③-④-|
①口⑦⑥ |⑤-⑥-|
口口口口 |--⑦-|
42
②④④② |①---|
口①口口 |②---|
口①口口 |③---|
口③③口 |④---|
43
口口口口 |①-②③|
④口口④ |--④-|
口口口口
①口②③

口口口口
口口口口
⑤⑦口⑤ |⑤---|
口口⑥口 |--⑥⑦|
44
口⑦⑤口 |①-②③|
⑦②①⑤ |--④-|
④口③⑥ |⑤--⑥|
口④⑥口 |--⑦-|
45
口口口口 |①---|
④口口⑤ |--②③|
⑥①①⑦ |④-⑤-|
口②③口 |⑥-⑦-|
46
④①⑤口 |①-②③|
口口口口 |--④-|
口⑥②口 |⑤-⑥⑦|
口⑦③⑧ |--⑧-|
47
口⑦⑥⑤ |①-②-|
③口口④ |③-④-|
①口口② |⑤-⑥-|
口口口口 |⑦---|
48
口⑦⑤口 |①-②③|
⑦②③⑤ |--④-|
④口①⑥ |⑤--⑥|
口④⑥口 |--⑦-|
49
口口口④ |①---|
口口口⑤ |--②③|
口①①⑥ |④-⑤-|
口③②⑦ |⑥-⑦-|
50
口口口口 |①---|
口口口口 |--②③|
⑤⑦⑧⑥ |④-⑤⑥|
①②③④ |--⑦⑧|
51
①⑦⑦① |①-②③|
②③⑤④ |-④⑤-|
口口口口 |⑥---|
口⑥⑥口 |⑦---|
52
①口口口 |①-②-|
②口口④ |③--④|
③⑦口⑤ |-⑤-⑥|
口口口⑥ |⑦---|
53
①⑧⑨口 |①-②-|
②口口④ |③--④|
③⑦口⑤ |-⑤-⑥|
口口口⑥ |⑦-⑧⑨|
54
①口口口 |①-②-|
②口口④ |③--④|
③⑦口⑤ |-⑤-⑥|
口口口⑥ |⑦---|
55
口口①口 |①-②-|
口②⑧口 |③-④-|
⑥口③⑤ |⑤⑥-⑦|
口④⑦口 |-⑧--|
56
①口口口 |①-②-|
②口口④ |③--④|
③⑦口⑤ |-⑤-⑥|
口口口⑥ |⑦---|
57
①⑧⑨口 |①-②-|
②口口④ |③--④|
③⑦口⑤ |-⑤-⑥|
口口口⑥ |⑦-⑧⑨|
58
①口口口 |①-②-|
②口口④ |③--④|
③⑦口⑤ |-⑤-⑥|
口口口⑥ |⑦---|
59
口口①① |①-②-|
②②口口 |③-④-|
口口③③
④④口口

口⑤⑥口
口⑦⑤口
口⑤口口 |⑤---|
口口⑤口 |⑥-⑦-|
60
口口口口 |①---|
口口口口 |----|
口口①口 |----|
口口口口 |----|

不確定度: 1

最終更新:2015年11月01日 03:20