Lovesick Lovetune
VALLEYSTONE feat. 紫崎 雪

EXTREME

Level: 9
BPM: 135
Notes: 627

1
口口口口 |----|
口口口口 |----|
口口口口 |----|
口口口口 |----|
2
口口口口 |①---|
口①①口 |----|
口①①口 |----|
口口口口 |----|
3
口①①口 |----|
口口口② |----|
口③口口 |----|
口口口口 |①-②③|
4
⑥口口⑥ |①-②③|
③口口口 |--④-|
⑦口④口 |⑤--⑥|
②口⑤① |--⑦-|
5
口口口口 |①---|
口口⑤② |--②③|
口③⑥口 |④-⑤-|
①口⑦④ |⑥-⑦-|
6
口口口口 |①-②③|
③口口⑦ |--④-|
⑤⑧⑧① |⑤-⑥⑦|
②④口⑥ |--⑧-|
7
口②②口 |①-②-|
④①①④ |③-④-|
口口口口
口③③口

⑤口口⑤
口⑥⑥口
⑦口⑧⑦ |⑤-⑥-|
口⑨口口 |⑦-⑧⑨|
8
⑥①①⑥ |①-②③|
口口口③ |--④-|
④口⑦口 |⑤--⑥|
⑤口口② |--⑦-|
9
口口口口 |①---|
口口口② |--②③|
口③口口
口口①口

口口口口
口⑤⑤口
⑥口口⑦ |④-⑤-|
口⑥⑦④ |⑥-⑦-|
10
①口口① |①---|
⑥⑧口② |--②③|
口③⑦口 |④-⑤⑥|
⑤口口④ |--⑦⑧|
11
③⑤③⑤ |①-②③|
口口口口 |-④⑤-|
①口口口
④②④②

口口口口
口口⑨⑥
⑧⑦⑥⑥ |⑥⑦⑧-|
口⑩口口 |⑨-⑩-|
12
①①①① |①-②-|
⑦口④口 |③--④|
口⑤②口 |-⑤-⑥|
⑥口口③ |⑦---|
13
口口口口 |①-②-|
口①④口 |③--④|
口口②口
口口口③

口口口口
⑦口口口
口⑤⑨口 |-⑤-⑥|
⑥口⑧口 |⑦-⑧⑨|
14
口①④⑩ |①-②-|
口⑤②⑨ |③--④|
⑥口⑧③ |-⑤-⑥|
口口⑦口 |⑦⑧⑨⑩|
15
②①⑨⑧ |①-②-|
①③⑦⑥ |③-④-|
④②⑧⑨ |⑤⑥-⑦|
③④口⑤ |-⑧-⑨|
16
①①口口 |①-②-|
①④口⑦ |③--④|
口②⑤口 |-⑤-⑥|
③口口⑥ |⑦---|
17
口口口口 |①-②-|
口④①口 |③--④|
口②口口
③口口口

口口口口
口口口⑦
口⑨⑤口 |-⑤-⑥|
口⑧口⑥ |⑦-⑧⑨|
18
⑩④①口 |①-②-|
⑨②⑤口 |③--④|
③⑧口⑥ |-⑤-⑥|
口⑦口口 |⑦⑧⑨⑩|
19
口口①② |①-②-|
口口③① |③-④-|
口口②④
口口④③

口口口口
⑤⑧⑨口
⑤⑥⑦口 |⑤---|
口口口口 |⑥⑦⑧⑨|
20
①口口① |①---|
②口口口 |--②-|
口③口口 |③---|
口口口④ |--④-|
21
口口口② |①---|
③口①口 |②-③-|
口口⑤口 |④---|
口④口口 |--⑤-|
22
②⑤⑤② |①---|
口①口口 |②---|
口④③口 |③---|
④口口口 |④-⑤-|
23
口口口口 |-①--|
口口①① |②--③|
口口②②
口口③③

④口⑥口
口⑤口口
④口⑥口 |--④-|
口口口口 |⑤-⑥-|
24
口口口口 |①---|
①口①② |--②-|
口口③口 |③---|
④口口口 |--④-|
25
②口口口 |①---|
口①口③ |②-③-|
口⑤口口 |④---|
口口④口 |--⑤-|
26
②⑤⑤② |①---|
口口①口 |②---|
口③④口 |③---|
口口口④ |④-⑤-|
27
口⑨口⑦ |①②③④|
①⑥⑧口 |⑤--⑥|
③⑨⑥⑦ |--⑦-|
⑤④②口 |⑧-⑨-|
28
①口①口 |①---|
②口口④ |②-③-|
④口③⑥ |④---|
⑤口口口 |⑤-⑥-|
29
口②①口 |①---|
③口口口 |②-③-|
口口口口
口①②口

口口口口
口口口口
④口口⑤ |④---|
口⑥口④ |⑤-⑥-|
30
①口口② |①---|
口②口① |②---|
口口口口
口口口口

口⑤③口
口口口⑥
口口口⑤ |③-④-|
口③④口 |⑤-⑥-|
31
①口口口 |①②--|
口②②口 |③--④|
口③③口
口④④口

⑤口⑦口
口⑥口口
⑤口⑦口 |--⑤-|
口口口口 |⑥-⑦-|
32
口③口① |①---|
④口口② |②-③-|
口①口④ |④---|
⑥口口⑤ |⑤-⑥-|
33
口口②口 |①---|
口①⑥③ |②-③-|
⑤口口④ |④---|
④②①口 |⑤-⑥-|
34
②口口② |①---|
①口口口 |②---|
口口口口
口①口口

口口口口
口③③口
口口⑥口 |③-④-|
口④⑤口 |⑤-⑥-|
35
口①②③ |①②③④|
⑥⑤④⑦ |⑤⑥⑦⑧|
口口口⑧
口口口口

⑬口口⑫
口口口口
口口口口 |⑨⑩⑪-|
⑫⑪⑩⑨ |⑫-⑬-|
36
口①①口 |①---|
口①②② |②---|
①①②口
口②②口

③⑤口③
口口口口
④口口⑥ |③-④⑤|
口口⑥口 |--⑥-|
37
④口④口 |①-②-|
③口②口 |③-④-|
③②口口
①①口口

口口口口
口⑦⑧⑤
⑧口口⑤ |⑤-⑥⑦|
⑥口⑥口 |--⑧-|
38
③口③④ |①---|
①口④② |②---|
③④①口 |③---|
口②口② |④---|
39
④③③口 |①-②③|
口①口口 |--④-|
④口①口
口②②①

口口口⑧
口口⑤⑨
口⑥⑦⑩ |⑤-⑥⑦|
⑤口口⑪ |⑧⑨⑩⑪|
40
①①①口 |①---|
②①②口 |②--③|
②②③口
②口②口

口口⑥④
口口口口
⑦口口⑤ |④-⑤⑥|
口⑦口口 |--⑦-|
41
口④口④ |①-②-|
口②口③ |③-④-|
口口②③
口口①①

口口口口
⑤⑧⑦口
⑤口口⑧ |⑤-⑥⑦|
口⑥口⑥ |--⑧-|
42
④③口③ |①---|
②④口① |②---|
口①④③ |③---|
②口②口 |④---|
43
口③③④ |①-②③|
口口①口 |--④-|
④①口口
①②②口

⑤口口口
口口口口
口⑥口⑤ |⑤--⑥|
⑦⑧⑨⑩ |⑦⑧⑨⑩|
44
③①①口 |①-②③|
口口口口 |--④-|
②④口口
④口口口

口⑥⑥口
口口口口
⑦口口⑤ |⑤--⑥|
口⑦⑤口 |--⑦-|
45
③口口② |①---|
口⑥④② |②-③④|
⑤⑦①口 |⑤-⑥-|
口⑧口① |⑦-⑧-|
46
⑦口口③ |①-②③|
①口⑤④ |--④-|
口口④⑤ |⑤-⑥⑦|
⑥⑧⑧② |--⑧-|
47
口②②口 |①-②-|
①口③④ |③-④-|
①③口④
口口口口

⑤口口口
⑥⑤口口
⑦口⑥口 |⑤-⑥-|
⑩⑨⑧⑦ |⑦⑧⑨⑩|
48
口①①③ |①-②③|
口口口口 |--④-|
口口④②
口口口④

口⑥⑥口
口口口口
⑤口口⑦ |⑤--⑥|
口⑤⑦口 |--⑦-|
49
②口口③ |①---|
②④口口 |②-③④|
口①口口
①口口口

口⑥⑥口
口口口口
口⑦⑦⑤ |⑤-⑥-|
⑧口口⑧ |⑦-⑧-|
50
①②②① |①---|
⑦⑨⑦③ |②-③④|
口④⑧口 |⑤-⑥⑦|
⑥口⑥⑤ |--⑧⑨|
51
③⑤③⑤ |①-②③|
口口口口 |-④⑤-|
①口口口
④②④②

口口口口
口口⑨⑥
⑧⑦⑥⑥ |⑥⑦⑧-|
口⑩口口 |⑨-⑩-|
52
①①①① |①-②-|
⑦口④口 |③--④|
口⑤②口 |-⑤-⑥|
⑥口口③ |⑦---|
53
口口口口 |①-②-|
口①④口 |③--④|
口口②口
口口口③

口口口口
⑦口口口
口⑤⑨口 |-⑤-⑥|
⑥口⑧口 |⑦-⑧⑨|
54
口①④⑩ |①-②-|
口⑤②⑨ |③--④|
⑥口⑧③ |-⑤-⑥|
口口⑦口 |⑦⑧⑨⑩|
55
②①⑨⑧ |①-②-|
①③⑦⑥ |③-④-|
④②⑧⑨ |⑤⑥-⑦|
③④口⑤ |-⑧-⑨|
56
①①口口 |①-②-|
①④口⑦ |③--④|
口②⑤口 |-⑤-⑥|
③口口⑥ |⑦---|
57
口口口口 |①-②-|
口④①口 |③--④|
口②口口
③口口口

口口口口
口口口⑦
口⑨⑤口 |-⑤-⑥|
口⑧口⑥ |⑦-⑧⑨|
58
⑩④①口 |①-②-|
⑨②⑤口 |③--④|
③⑧口⑥ |-⑤-⑥|
口⑦口口 |⑦⑧⑨⑩|
59
口口①② |①-②-|
口口③① |③-④-|
口口②④
口口④③

⑦口口⑥
⑤口口口
⑤口口口 |⑤---|
⑥口口⑦ |⑥-⑦-|
60
口口口口 |①---|
口①①口 |----|
口①①口 |----|
口口口口 |----|

不確定度: 1

最終更新:2015年11月01日 03:20